<?xml version="1.0" standalone="no"?>
<!DOCTYPE svg PUBLIC "-//W3C//DTD SVG 1.1//EN" "http://www.w3.org/Graphics/SVG/1.1/DTD/svg11.dtd" >
<svg>
<metadata>
Created by FontForge 20110222 at Thu Sep  4 07:14:55 2014
 By deploy user
Copyright (c) 1986, 1987, 1992 Adobe Systems Incorporated. All Rights Reserved.ITC Galliard is a registered trademark of International Typeface Corporation.
</metadata>
<defs>
<font id="GalliardLT-Roman" horiz-adv-x="560" >
  <font-face 
    font-family="Galliard LT"
    font-weight="500"
    font-stretch="normal"
    units-per-em="1000"
    panose-1="2 0 6 3 6 0 0 2 0 3"
    ascent="800"
    descent="-200"
    x-height="442"
    cap-height="680"
    bbox="-177 -259 1000 966"
    underline-thickness="50"
    underline-position="-75"
    unicode-range="U+0020-FB02"
  />
<missing-glyph horiz-adv-x="280" 
 />
    <glyph glyph-name=".notdef" horiz-adv-x="280" 
 />
    <glyph glyph-name=".null" horiz-adv-x="0" 
 />
    <glyph glyph-name="nonmarkingreturn" horiz-adv-x="280" 
 />
    <glyph glyph-name="space" unicode=" " horiz-adv-x="280" 
 />
    <glyph glyph-name="space" unicode="&#xa0;" horiz-adv-x="280" 
 />
    <glyph glyph-name="dollar" unicode="$" 
d="M279 653q-45 -8 -72.5 -37.5t-27.5 -77.5q0 -26 7.5 -46.5t21 -36.5t32 -29t39.5 -25v252zM307 27q22 4 40 15.5t31.5 28t21 37t7.5 42.5q0 51 -28 84t-72 55v-262zM453 494h-16q-6 29 -14.5 56.5t-22.5 50t-36.5 37t-56.5 17.5v-264q32 -16 65 -34t59.5 -42t43.5 -54.5
t17 -72.5q0 -39 -15 -71.5t-40.5 -57.5t-59 -40.5t-70.5 -19.5v-89h-28v88q-53 -2 -104.5 11.5t-99.5 36.5l-25 171l16 3q12 -40 30 -75t43.5 -62t60 -42.5t79.5 -16.5v276q-32 15 -64.5 33t-59.5 41.5t-44 54t-17 71.5q0 38 16 69t42 53.5t59 37t68 19.5v65h28v-63
q42 0 83.5 -8t76.5 -31z" />
    <glyph glyph-name="percent" unicode="%" horiz-adv-x="640" 
d="M158 672q-21 0 -33.5 -18.5t-19 -43.5t-8.5 -50.5t-2 -39.5t2 -39.5t8.5 -51t19 -44.5t33.5 -19t33 19t18.5 44.5t8.5 51t2 39.5q0 13 -2 38.5t-8.5 51t-18.5 44t-33 18.5zM481 316q-21 0 -33.5 -18.5t-19 -43.5t-8.5 -50.5t-2 -39.5t2 -39.5t8.5 -51t19 -44.5t33.5 -19
t33 19t18.5 44.5t8.5 51t2 39.5q0 13 -2 38.5t-8.5 51t-18.5 44t-33 18.5zM152 0h-48l383 680h48zM159 692q34 0 58 -16t39 -41t21.5 -56t6.5 -60t-7 -59.5t-22 -56t-39 -41.5t-58 -16q-35 0 -59 16t-39 41t-22 56t-7 60q0 30 7 61t22 55.5t39.5 40.5t59.5 16zM482 336
q34 0 58 -16t39 -41t21.5 -56t6.5 -60t-7 -59.5t-22 -56t-39 -41.5t-58 -16q-35 0 -59 16t-39 41t-22 56t-7 60q0 30 7 61t22 55.5t39.5 40.5t59.5 16z" />
    <glyph glyph-name="ampersand" unicode="&#x26;" horiz-adv-x="860" 
d="M321 438q29 23 50 53t21 69q0 19 -6.5 37.5t-18 33t-28 23t-37.5 8.5q-38 0 -60.5 -26t-22.5 -63q0 -32 16 -52t38 -40zM248 385q-42 -23 -68.5 -65t-26.5 -90q0 -36 12.5 -66.5t35 -53t53 -35t66.5 -12.5q51 0 89.5 22.5t71.5 58.5q-54 64 -110.5 126t-122.5 115z
M225 409q-15 13 -30 27.5t-27.5 31t-20 35t-7.5 40.5q0 35 15.5 63t40.5 47t56.5 29t63.5 10q28 0 56 -7.5t51 -23t37.5 -39t14.5 -55.5q0 -29 -12 -50.5t-30.5 -37t-42 -27.5t-45.5 -23l-11 -6l198 -210q10 15 25 37t29 46.5t24 48t10 41.5q0 12 -9.5 18.5t-23 10t-27 5
t-21.5 3.5v15h295v-15q-39 -3 -72 -14.5t-61 -31t-52.5 -45.5t-46.5 -57l-55 -77q23 -30 47 -60t51.5 -54t60 -39t71.5 -15q20 0 40 2t40 6l5 -13q-47 -17 -91 -26t-94 -9l-75 7q-14 1 -21 9.5t-15.5 25t-24.5 41.5t-48 58q-23 -28 -47 -53.5t-51.5 -45.5t-59.5 -32t-71 -12
q-28 0 -61.5 11t-63 34.5t-49.5 59.5t-20 86q0 39 14 71.5t37 59.5t52 49.5t60 41.5z" />
    <glyph glyph-name="quoteright" unicode="&#x2019;" horiz-adv-x="300" 
d="M90 415q15 11 31.5 23.5t29.5 27t21.5 32t8.5 38.5q0 30 -13.5 43.5t-31 17.5t-32.5 0t-18 -10q-11 9 -15.5 26.5t0 35t19.5 30.5t44 13q24 0 43.5 -9.5t33.5 -25.5t21.5 -37.5t7.5 -44.5q0 -31 -12 -57.5t-31.5 -48.5t-45 -39.5t-51.5 -29.5z" />
    <glyph glyph-name="parenleft" unicode="(" horiz-adv-x="380" 
d="M277 -242q-47 48 -86.5 103t-67.5 115.5t-43.5 126.5t-15.5 135t15.5 135t44 127t67.5 116t86 102l14 -13q-42 -53 -73 -107t-51.5 -111t-30.5 -118.5t-10 -130.5q0 -137 41 -248.5t124 -217.5z" />
    <glyph glyph-name="parenright" unicode=")" horiz-adv-x="380" 
d="M103 718q47 -48 86.5 -103t67.5 -115.5t43.5 -126.5t15.5 -135t-15.5 -135t-44 -127t-67.5 -116t-86 -102l-14 13q83 106 124 218t41 249q0 69 -10 130t-30.5 118t-51.5 111t-73 107z" />
    <glyph glyph-name="asterisk" unicode="*" horiz-adv-x="540" 
d="M302 550l122 48l25 -77l-127 -32l84 -101l-66 -48l-70 111l-70 -111l-66 48l84 101l-127 32l26 77l121 -48l-8 130h81z" />
    <glyph glyph-name="plus" unicode="+" 
d="M253 248v194h54v-194h194v-54h-194v-194h-54v194h-194v54h194z" />
    <glyph glyph-name="comma" unicode="," horiz-adv-x="280" 
d="M94 -190q17 11 33.5 25t30 30.5t21.5 35.5t8 41t-7.5 35t-18 19.5t-22 8.5t-18.5 3q-19 2 -35 10.5t-16 31.5q0 24 18 35t40 11q26 0 47.5 -11t36.5 -29t23 -41t8 -48q0 -32 -12.5 -58t-32.5 -47t-45 -38t-50 -30z" />
    <glyph glyph-name="hyphen" unicode="-" horiz-adv-x="360" 
d="M68 274h218v-48h-218v48z" />
    <glyph glyph-name="hyphen" unicode="&#xad;" horiz-adv-x="360" 
d="M68 274h218v-48h-218v48z" />
    <glyph glyph-name="period" unicode="." horiz-adv-x="280" 
d="M148 -12q-23 0 -38.5 15.5t-15.5 38.5t15.5 39t38.5 16t39 -16t16 -39t-16 -38.5t-39 -15.5z" />
    <glyph glyph-name="slash" unicode="/" horiz-adv-x="640" 
d="M3 -189l589 907l44 -28l-589 -907z" />
    <glyph glyph-name="zero" unicode="0" 
d="M406 342q0 20 -1.5 52t-6 68t-13.5 72.5t-23 66t-34 47.5t-48 18t-48.5 -18.5t-34.5 -48t-22.5 -66t-13.5 -72.5t-6.5 -67.5t-1.5 -51.5t1.5 -52t6.5 -68.5t13.5 -73.5t22.5 -67t34.5 -48.5t48.5 -18.5t48 18.5t34 48.5t23 67t13.5 73.5t6 68.5t1.5 52zM510 340
q0 -53 -11 -114.5t-37.5 -114.5t-71 -88t-110.5 -35q-67 0 -111.5 35t-71 87.5t-37.5 114t-11 115.5t11 116t38 114.5t71.5 87t112.5 34.5q44 0 78 -16t59.5 -43.5t43 -63.5t28 -75t15 -79t4.5 -75z" />
    <glyph glyph-name="one" unicode="1" 
d="M328 680q-3 -70 -4.5 -133t-2 -123t-0.5 -119q0 -58 1 -120q1 -45 3 -75t15 -49.5t41.5 -29.5t81.5 -16v-15h-370v15q53 6 81.5 16t41.5 29.5t15 49.5t3 75v323q0 42 -2.5 69.5t-16 45t-41.5 27t-78 15.5v15h232z" />
    <glyph glyph-name="two" unicode="2" 
d="M432 0h-409l-6 14q48 38 106.5 90t110 112.5t86.5 126.5t35 131q0 28 -8.5 53t-24.5 43.5t-39.5 29t-52.5 10.5q-25 0 -47.5 -8t-42.5 -20.5t-38 -29t-34 -33.5l-15 12q16 31 38 60t49 51.5t59 36t70 13.5q42 0 75.5 -16t57.5 -43t36.5 -62.5t12.5 -75.5
q0 -58 -31.5 -115t-78.5 -110.5t-101 -101t-100 -86.5h184q39 0 63 5t40.5 17.5t30 34t31.5 54.5l14 -6z" />
    <glyph glyph-name="three" unicode="3" 
d="M141 313q20 16 33 27.5t23.5 19.5t20 13t23.5 8l19 5q21 7 41.5 20.5t37 31t27 39t10.5 46.5q0 22 -9 39.5t-24.5 29.5t-35 18t-40.5 6q-46 0 -85.5 -23t-69.5 -55l-19 12q19 31 41 57t48 45t57 29.5t70 10.5q29 0 57 -9.5t49.5 -27t35 -43t13.5 -56.5q0 -36 -16.5 -63
t-41.5 -48t-55 -37t-58 -28v-2q41 -4 77 -16.5t62.5 -34.5t42 -53.5t15.5 -73.5q0 -47 -22 -86t-57 -67t-79 -43.5t-87 -15.5q-25 0 -55.5 6t-56.5 19.5t-44 35.5t-18 53q0 18 8.5 32.5t23 22.5t32.5 7.5t37 -11.5v-20q0 -22 7.5 -42.5t21 -36.5t33 -25.5t42.5 -9.5
q30 0 53.5 12.5t40.5 33t26 47t9 53.5q0 36 -16.5 63t-43 45t-59.5 27t-65 9q-18 0 -36 -2.5t-36 -6.5z" />
    <glyph glyph-name="four" unicode="4" 
d="M82 276h217v288zM386 685q-4 -62 -5.5 -111.5t-2 -96t0 -95t0.5 -106.5h141v-65h-141v-41q0 -37 2 -63t13.5 -44t37.5 -29.5t74 -18.5v-15h-334v15q48 7 74 18.5t37.5 29.5t13.5 44t2 63v41h-287l-5 25l353 461z" />
    <glyph glyph-name="five" unicode="5" 
d="M131 401q29 8 53.5 13.5t61.5 5.5q49 0 90.5 -14.5t72.5 -41.5t48.5 -66.5t17.5 -90.5q0 -50 -20 -90.5t-53.5 -69t-77 -44t-90.5 -15.5q-23 0 -51.5 5.5t-53.5 18t-41.5 32.5t-16.5 49q0 19 9 34.5t23 24t32 9.5t36 -7q-6 -25 -2.5 -49.5t16 -43.5t34.5 -31t53 -12
q30 0 52 13t36.5 34t22 47t7.5 53q0 78 -42.5 125t-122.5 47q-33 0 -66 -10t-61 -27l-8 3l33 377h191q33 0 51.5 1t29.5 6t18.5 15.5t18.5 29.5h13l-33 -134h-263z" />
    <glyph glyph-name="six" unicode="6" 
d="M173 383q-14 -38 -20 -77.5t-6 -79.5q0 -33 8 -69.5t25 -67t45 -50.5t68 -20q35 0 58 17.5t37 44.5t19.5 59t5.5 60q0 39 -11 74.5t-32 62.5t-52.5 43t-73.5 16q-20 0 -36.5 -3t-34.5 -10zM464 681q-44 -24 -85.5 -52.5t-78 -62.5t-66.5 -74.5t-51 -86.5q31 11 62.5 19.5
t63.5 8.5q45 0 83.5 -15.5t66 -43.5t43 -66.5t15.5 -83.5q0 -52 -19 -95t-52 -74.5t-77.5 -49t-95.5 -17.5q-53 0 -95.5 19t-72.5 52.5t-46 78.5t-16 96q0 89 35.5 162t94 131t132 100t150.5 69z" />
    <glyph glyph-name="seven" unicode="7" 
d="M80 -12l369 610h-232q-42 0 -64.5 -3.5t-36 -14.5t-25 -30.5t-32.5 -51.5l-15 4l50 178h435l8 -6l-388 -686h-69z" />
    <glyph glyph-name="eight" unicode="8" 
d="M319 383q30 27 46.5 66t16.5 80q0 27 -7.5 52t-22 43.5t-36.5 30t-52 11.5q-42 0 -69 -28t-27 -70q0 -33 15 -59.5t37.5 -48.5t49 -41t49.5 -36zM232 336q-39 -26 -65 -70t-26 -91q0 -30 10.5 -59t29 -51.5t45 -36.5t59.5 -14q25 0 45.5 9.5t35.5 26t23 37.5t8 45
q0 37 -16 66t-40.5 53t-53.5 44.5t-55 40.5zM206 354q-23 17 -45.5 34.5t-40.5 38.5t-29 46t-11 57q0 41 18 71.5t47 50.5t65.5 30t72.5 10q33 0 66 -8.5t60 -26.5t44 -45.5t17 -64.5q0 -34 -11.5 -59.5t-31 -46t-44 -36.5t-50.5 -32l9 -7q26 -20 51.5 -40.5t46 -44
t33 -52.5t12.5 -65q0 -43 -19.5 -76t-50 -55t-69 -33.5t-77.5 -11.5q-38 0 -76.5 10t-69.5 31t-50.5 52.5t-19.5 75.5q0 36 14.5 65t38 52t52.5 40.5t58 32.5z" />
    <glyph glyph-name="nine" unicode="9" 
d="M261 666q-35 0 -60.5 -16t-42 -41.5t-24 -57t-7.5 -61.5q0 -53 15.5 -89.5t39 -59t51 -32.5t51.5 -10q25 0 52.5 8.5t45.5 26.5q8 28 10.5 57t2.5 58q0 31 -6 69t-21.5 71t-41.5 55t-65 22zM72 -6q49 22 95 54t85.5 71t70 85t48.5 98q-33 -20 -69.5 -31.5t-75.5 -11.5
q-42 0 -79 15t-64.5 41.5t-43.5 63t-16 79.5q0 52 19.5 95.5t53.5 74t79 47.5t96 17t93 -18t72 -49.5t46.5 -74.5t16.5 -94q0 -93 -34.5 -170.5t-92 -138t-133.5 -104t-160 -68.5z" />
    <glyph glyph-name="colon" unicode=":" horiz-adv-x="280" 
d="M148 -12q-23 0 -38.5 15.5t-15.5 38.5t15.5 39t38.5 16t39 -16t16 -39t-16 -38.5t-39 -15.5zM148 327q-23 0 -38.5 15.5t-15.5 38.5t15.5 39t38.5 16t39 -16t16 -39t-16 -38.5t-39 -15.5z" />
    <glyph glyph-name="semicolon" unicode=";" horiz-adv-x="280" 
d="M148 327q-23 0 -38.5 15.5t-15.5 38.5t15.5 39t38.5 16t39 -16t16 -39t-16 -38.5t-39 -15.5zM94 -190q17 11 33.5 25t30 30.5t21.5 35.5t8 41t-7.5 35t-18 19.5t-22 8.5t-18.5 3q-19 2 -35 10.5t-16 31.5q0 24 18 35t40 11q26 0 47.5 -11t36.5 -29t23 -41t8 -48
q0 -32 -12.5 -58t-32.5 -47t-45 -38t-50 -30z" />
    <glyph glyph-name="less" unicode="&#x3c;" 
d="M65 253l430 191v-63l-352 -155l352 -165v-63l-430 202v53z" />
    <glyph glyph-name="equal" unicode="=" 
d="M501 182v-54h-443v54h443zM501 314v-54h-443v54h443z" />
    <glyph glyph-name="greater" unicode="&#x3e;" 
d="M495 189l-430 -191v63l352 155l-352 165v63l430 -202v-53z" />
    <glyph glyph-name="question" unicode="?" horiz-adv-x="360" 
d="M127 -12q-23 0 -38.5 15.5t-15.5 38.5t15.5 39t38.5 16t39 -16t16 -39t-16 -38.5t-39 -15.5zM96 166l-8 110q-3 34 8.5 52.5t29.5 27.5t40 12.5t41 9t32 15.5t13 33q0 21 -15 37t-36 29.5t-44 26.5t-39 28q-26 24 -24 59t17 86l17 -4q1 -18 5.5 -29.5t12.5 -20.5
t18.5 -16.5t24.5 -16.5q24 -17 40.5 -29t27 -29t15 -43t4.5 -69q0 -60 -10.5 -90t-26.5 -42.5t-35 -15t-36 -7t-30.5 -19t-17.5 -50.5l-5 -45h-19z" />
    <glyph glyph-name="at" unicode="@" horiz-adv-x="700" 
d="M449 420q6 18 7 36.5t-4 32.5t-17.5 23t-33.5 9q-25 0 -46.5 -17t-40 -44t-33 -61t-24.5 -68t-15.5 -64t-5.5 -50q0 -25 15 -41t39 -16q23 0 41.5 12.5t32 31t23.5 40t16 40.5zM488 534h78l-88 -259q-6 -16 -13 -35.5t-10 -36t1.5 -28t21.5 -11.5q25 0 55.5 19t56.5 51
t43.5 75.5t17.5 92.5q0 54 -22.5 100t-60 79t-86 52t-100.5 19q-63 0 -117 -24t-93.5 -65.5t-62 -97.5t-22.5 -120q0 -66 21.5 -123.5t60 -100.5t92.5 -68t119 -25q40 0 79 11.5t73.5 32t63 49.5t47.5 65h40q-18 -46 -49.5 -82.5t-72.5 -62t-87.5 -39.5t-94.5 -14
q-72 0 -134.5 28t-108.5 76t-72.5 112.5t-26.5 136.5t26.5 135.5t72.5 111.5t108 76t133 28q63 0 119.5 -21t100 -59t69 -92.5t25.5 -121.5q0 -48 -18.5 -96t-50 -85.5t-72 -61t-83.5 -23.5q-25 0 -49 13t-28 41q-22 -23 -52 -38t-62 -15q-27 0 -48 11t-35 29.5t-21.5 42
t-7.5 49.5q0 45 15 94.5t43 91t68 69t90 27.5q14 0 29 -3t28.5 -10t23.5 -17.5t14 -25.5z" />
    <glyph glyph-name="A" unicode="A" horiz-adv-x="680" 
d="M307 591l-94 -260h198zM196 285q-6 -19 -16.5 -46t-20.5 -55.5t-17 -55.5t-7 -45q0 -23 11.5 -35.5t28.5 -19t37 -8.5t37 -5v-15h-274v15q33 9 53 18t33 22.5t22 33t21 48.5l113 295l60 163q7 20 13 37.5t-2 31.5q42 17 73 54l220 -586q10 -27 19.5 -47t22.5 -33.5
t32.5 -22t49.5 -14.5v-15h-294v15q13 3 26.5 7t25 11t18.5 18t7 28q0 16 -6.5 40t-16 52.5t-20.5 58t-21 55.5h-228z" />
    <glyph glyph-name="B" unicode="B" horiz-adv-x="660" 
d="M243 360q35 0 72 6t67 22t49.5 43t19.5 71q0 45 -18 75t-47.5 48.5t-67 26t-75.5 7.5v-299zM243 173q0 -29 1 -56.5t9.5 -48.5t28.5 -34t58 -13q33 0 60 10.5t46.5 29t30.5 45.5t11 60q0 23 -11 54t-36 59t-64 46.5t-95 15.5l-39 -2v-166zM373 359q34 -8 73 -20.5
t72 -33.5t55 -52t22 -75q0 -46 -18 -77.5t-46 -51.5t-62 -30.5t-66 -15t-58.5 -5t-38.5 -0.5l-275 2v15q45 6 69.5 15.5t36.5 26.5t14.5 42.5t3.5 64.5v347q-1 39 -3.5 64.5t-14 42.5t-34.5 26t-66 15v15l203 8q28 1 62 0t68.5 -6t66.5 -15.5t57.5 -29.5t40.5 -47t15 -67
q0 -37 -16.5 -63t-42.5 -44t-57 -30t-61 -19v-2z" />
    <glyph glyph-name="C" unicode="C" horiz-adv-x="740" 
d="M676 474h-15q-7 42 -23 78t-41.5 61.5t-60.5 40t-80 14.5q-69 0 -122 -26t-89.5 -70.5t-55.5 -103t-19 -122.5q0 -74 26 -135.5t68 -105.5t95 -68.5t107 -24.5q49 0 84.5 16.5t61.5 45t45.5 65t36.5 77.5l14 -6q-9 -46 -23 -90.5t-32 -88.5q-48 -23 -99 -33t-105 -10
q-78 0 -149.5 22.5t-126 66t-87 108t-32.5 149.5q0 67 26 131t76.5 114.5t126 81.5t174.5 31q57 0 113 -12.5t106 -41.5v-164z" />
    <glyph glyph-name="D" unicode="D" horiz-adv-x="820" 
d="M243 154q0 -25 4 -48.5t17.5 -42t40.5 -29.5t74 -11q43 0 90.5 15t87.5 49.5t66 92t26 143.5q0 90 -33 154.5t-88.5 105.5t-129.5 60t-155 19v-508zM37 674l242 8q110 3 189 -13.5t133 -46t86 -68t49.5 -78t23 -76t5.5 -62.5q0 -36 -8.5 -75t-28 -77t-52.5 -72.5
t-81.5 -60.5t-114 -41t-151.5 -14l-298 2v15q45 6 69.5 15.5t36.5 26.5t14.5 42.5t3.5 64.5v347q-1 39 -3.5 64.5t-14 42.5t-34.5 26.5t-66 15.5v14z" />
    <glyph glyph-name="E" unicode="E" horiz-adv-x="660" 
d="M31 15q45 6 69.5 15.5t36.5 26.5t14.5 42.5t3.5 64.5v352q-1 39 -3.5 64.5t-14.5 42.5t-36.5 26.5t-69.5 15.5v15h537l-12 -154h-15q-3 48 -20.5 74.5t-45 39t-62.5 14.5t-73 2h-97v-285h104q28 0 52.5 2.5t43 11.5t31 27.5t16.5 50.5h15v-223h-15q-5 33 -17.5 51
t-31 26.5t-42.5 10t-52 1.5h-104v-164q0 -22 0.5 -47t13 -46t43.5 -34.5t93 -13.5q47 0 83 9.5t61.5 30.5t42.5 54t26 80h15q-1 -57 -10 -105t-24 -93h-556v15z" />
    <glyph glyph-name="F" unicode="F" horiz-adv-x="580" 
d="M495 460v-244h-15q-3 38 -14 58t-29.5 29t-44 10.5t-56.5 1.5h-109v-151q0 -40 3 -65.5t17 -41.5t43 -25t81 -17v-15h-356v15q45 6 69.5 15.5t36.5 26.5t14.5 42.5t3.5 64.5v352q-1 39 -3.5 64.5t-14.5 42.5t-36.5 26.5t-69.5 15.5v15h529l-16 -158h-15q-2 48 -18 75
t-42.5 40t-61 16t-73.5 3h-91v-299h109q31 0 56.5 2.5t44 13t29.5 31t14 56.5h15z" />
    <glyph glyph-name="G" unicode="G" horiz-adv-x="780" 
d="M737 77v-15q-40 -17 -76.5 -30.5t-72.5 -23.5t-73.5 -15t-79.5 -5q-77 0 -146.5 23t-121.5 67t-82.5 108t-30.5 146q0 83 33.5 150t89.5 113.5t129 71.5t151 25q60 0 118.5 -10t115.5 -29l-4 -174h-13q-19 88 -77 138.5t-149 50.5q-65 0 -116.5 -23t-87.5 -63.5t-55 -95
t-19 -117.5q0 -74 25 -137.5t70 -110t107.5 -73t137.5 -26.5q34 0 52.5 5t26.5 15.5t9.5 27.5t1.5 41v60q0 42 -6 66.5t-21.5 38.5t-41.5 20t-66 11v15h296v-15q-26 -5 -41 -13.5t-22 -20.5t-8.5 -29.5t-1.5 -40.5v-126h49z" />
    <glyph glyph-name="H" unicode="H" horiz-adv-x="880" 
d="M239 164q0 -41 2.5 -67t15 -41.5t39.5 -24.5t76 -16v-15h-345v15q45 6 69.5 15.5t36.5 26.5t14.5 42.5t3.5 64.5v352q-1 39 -3.5 64.5t-14.5 42.5t-36.5 26.5t-69.5 15.5v15h345v-15q-49 -7 -76 -16t-39.5 -24.5t-15 -41.5t-2.5 -67v-145h402v145q0 41 -2.5 67t-15 41.5
t-39.5 24.5t-76 16v15h345v-15q-45 -6 -69.5 -15.5t-36.5 -26.5t-14.5 -42.5t-3.5 -64.5v-352q1 -39 3.5 -64.5t14.5 -42.5t36.5 -26.5t69.5 -15.5v-15h-345v15q49 7 76 16t39.5 24.5t15 41.5t2.5 67v165h-402v-165z" />
    <glyph glyph-name="I" unicode="I" horiz-adv-x="400" 
d="M244 164q1 -39 3.5 -64.5t14.5 -42.5t36.5 -26.5t69.5 -15.5v-15h-336v15q45 6 69.5 15.5t36.5 26.5t14.5 42.5t3.5 64.5v352q-1 39 -3.5 64.5t-14.5 42.5t-36.5 26.5t-69.5 15.5v15h336v-15q-45 -6 -69.5 -15.5t-36.5 -26.5t-14.5 -42.5t-3.5 -64.5v-352z" />
    <glyph glyph-name="J" unicode="J" horiz-adv-x="400" 
d="M171 516q0 41 -2.5 67t-15 41.5t-39.5 24.5t-76 16v15h344v-15q-45 -6 -70 -15.5t-36.5 -26.5t-14 -42.5t-2.5 -64.5v-358q0 -73 -6.5 -120.5t-31 -82.5t-72.5 -63.5t-129 -63.5l-8 17q55 26 87 59.5t48 77t20 98t4 122.5v314z" />
    <glyph glyph-name="K" unicode="K" horiz-adv-x="700" 
d="M696 680v-15q-43 -5 -79 -23.5t-68 -45t-60.5 -57.5t-56.5 -60l-94 -100l203 -224q46 -51 100.5 -92t121.5 -60l-5 -15q-65 5 -106.5 10.5t-71.5 17.5t-56.5 33.5t-61.5 60.5l-204 222l161 175q39 44 56.5 73.5t17 47.5t-15.5 26t-40 11v15h259zM244 164q1 -39 4 -64.5
t15.5 -42.5t39 -26.5t74.5 -15.5v-15h-345v15q45 6 69.5 15.5t36.5 26.5t14.5 42.5t3.5 64.5v352q-1 39 -3.5 64.5t-14.5 42.5t-36.5 26.5t-69.5 15.5v15h318v-15q-38 -6 -59 -15.5t-31 -26.5t-12.5 -42.5t-3.5 -64.5v-352z" />
    <glyph glyph-name="L" unicode="L" horiz-adv-x="640" 
d="M31 15q45 6 69.5 15.5t36.5 26.5t14.5 42.5t3.5 64.5v352q-1 39 -3.5 64.5t-14.5 42.5t-36.5 26.5t-69.5 15.5v15h336v-15q-45 -6 -70 -15.5t-37 -26.5t-14.5 -42.5t-2.5 -64.5v-328q0 -38 2 -76.5t13 -74.5l122 -9q57 -4 93 3t62 27t48 53t51 81l13 -6l-57 -186h-559v15
z" />
    <glyph glyph-name="M" unicode="M" horiz-adv-x="960" 
d="M485 146l181 398q19 41 26 75t-9 45l2 16h220v-15q-24 -5 -43 -12.5t-32 -19.5t-19.5 -30.5t-4.5 -44.5l22 -364q4 -52 8 -84t15 -51t33 -28t62 -16v-15h-329v15q29 4 52 9.5t39 16.5t24 30.5t6 52.5l-27 437h-2l-255 -561h-11l-237 538h-2q-6 -57 -10.5 -108
t-8.5 -100.5t-6.5 -101t-5.5 -109.5q-1 -15 1 -30t13 -29t36 -26t70 -19v-15h-279v15q33 6 53 17t31 28t17 40.5t11 53.5l37 281l13 136q2 25 -6.5 42t-24 28t-36.5 16.5t-43 7.5v15h216l1 -11q-8 -9 -8.5 -23t3.5 -29t9 -28t8 -19z" />
    <glyph glyph-name="N" unicode="N" horiz-adv-x="820" 
d="M675 157l-5 365q0 36 -6 60t-22 40t-43 25.5t-69 17.5v15h273v-15q-26 -3 -42 -12t-26 -23t-14.5 -33.5t-7.5 -43.5q-5 -41 -7 -104.5t-2 -139.5t1.5 -159.5t3.5 -165.5l-13 -3q-120 142 -250 275.5t-257 270.5v-184q0 -93 1.5 -152t14 -94.5t41 -53t82.5 -28.5v-15h-299
v15q51 5 77.5 26t38 60.5t13 100.5t1.5 146v150q0 37 -4.5 64t-19.5 46.5t-43 32.5t-76 24v15h165z" />
    <glyph glyph-name="O" unicode="O" horiz-adv-x="840" 
d="M411 668q-65 0 -110.5 -28.5t-74.5 -72.5t-42.5 -97.5t-13.5 -104.5q0 -58 15.5 -120.5t48 -114t81.5 -85t117 -33.5q62 0 107 28.5t74 73.5t43 100t14 109q-1 66 -20 128.5t-53 110.5t-81.5 77t-104.5 29zM419 692q96 0 165.5 -30t114 -79.5t66 -112.5t21.5 -130
q0 -81 -27.5 -146t-76.5 -110.5t-116 -70.5t-146 -25t-146 25t-116 70.5t-76.5 111t-27.5 146.5q0 80 27.5 145t76.5 110.5t116 70.5t145 25z" />
    <glyph glyph-name="P" unicode="P" horiz-adv-x="600" 
d="M37 674l218 8q73 3 125 -7t87 -27.5t55.5 -39.5t31 -43.5t13.5 -39.5t3 -28q0 -53 -23.5 -89t-60.5 -60t-82.5 -36.5t-89.5 -17.5l-3 15q34 5 63 17t50 31.5t32.5 47t11.5 65.5q0 49 -19 84.5t-50.5 58.5t-72 34t-84.5 11v-494q0 -41 2.5 -67t15 -41.5t39.5 -24.5t76 -16
v-15h-345v15q45 6 69.5 15.5t36.5 26.5t14.5 42.5t3.5 64.5v310q0 51 -2 85.5t-13 56t-34.5 31.5t-67.5 12v15z" />
    <glyph glyph-name="Q" unicode="Q" horiz-adv-x="840" 
d="M417 668q-64 0 -110.5 -27.5t-77 -72t-45 -100.5t-14.5 -112q0 -66 19.5 -128t54.5 -110t83.5 -77t106.5 -29q61 0 106.5 28t75.5 72.5t44.5 99.5t14.5 109q0 62 -17.5 124t-51 111.5t-81.5 80.5t-108 31zM688 -199q-51 0 -94 20t-85 49t-87 62t-99 60l-49 24
q-18 9 -54.5 29t-73.5 58t-64.5 96.5t-27.5 144.5q0 79 28.5 143.5t78 110t116.5 70t144 24.5q76 0 143.5 -24t117.5 -69t79.5 -109t29.5 -143q0 -72 -23 -132.5t-64 -107t-99 -76.5t-128 -40l197 -103q44 -23 90 -30t95 -9v-15q-21 -5 -44 -10.5t-45.5 -10.5t-43.5 -8.5
t-38 -3.5z" />
    <glyph glyph-name="R" unicode="R" horiz-adv-x="700" 
d="M242 342q36 0 73 9t67 27.5t49 48t19 71.5q0 44 -17.5 75t-47 50.5t-67 28.5t-76.5 9v-319zM154 474q0 57 -2.5 92t-14 54.5t-35 27.5t-65.5 12v14l244 8q63 2 107.5 -6t75 -22t48 -32.5t27 -37t12 -36t2.5 -29.5q0 -63 -35 -101.5t-89 -62.5l5 -7q29 -51 62 -105.5
t74 -102.5t90.5 -84t111.5 -49l-3 -15q-40 2 -74.5 3.5t-64.5 7t-55.5 17t-47.5 34.5q-25 26 -46.5 54.5t-39.5 55.5t-31.5 50.5t-21.5 39.5q-15 31 -30 44.5t-32 18t-37.5 4t-46.5 4.5v-161q0 -41 2.5 -67t15.5 -41.5t41.5 -24.5t79.5 -16v-15h-351v15q45 6 69.5 15.5
t36.5 26.5t14.5 42.5t3.5 64.5v310z" />
    <glyph glyph-name="S" unicode="S" horiz-adv-x="520" 
d="M431 504h-16q-6 30 -15 59t-24.5 51t-40 35.5t-61.5 13.5q-24 0 -45.5 -8t-37 -22.5t-25 -34.5t-9.5 -45q0 -43 23.5 -73t58.5 -54.5t75.5 -46t75.5 -48.5t58.5 -62t23.5 -85q0 -48 -22 -85t-56.5 -61.5t-78 -37t-86.5 -12.5q-46 0 -92 13t-84 38l-29 170h18
q9 -36 26.5 -70.5t42.5 -61t58.5 -43t74.5 -16.5q28 0 52 8t42 23.5t28 38.5t10 52q0 44 -22.5 74.5t-56.5 54t-74 44t-74 46t-56.5 59.5t-22.5 84q0 44 20 79.5t51.5 60t71.5 38t80 13.5q38 0 75.5 -10.5t70.5 -28.5z" />
    <glyph glyph-name="T" unicode="T" horiz-adv-x="680" 
d="M641 711h8l14 -187l-14 -3q-13 46 -30.5 72t-42 39t-57 15.5t-75.5 2.5h-60v-462q0 -47 3 -77.5t16.5 -49.5t42 -29.5t78.5 -16.5v-15h-368v15q50 6 78.5 16.5t42 29.5t16.5 49.5t3 77.5v462h-60q-43 0 -75.5 -2.5t-57 -15.5t-42 -39t-30.5 -72l-14 3l14 187h8l10 -9
q9 -9 15.5 -13.5t12.5 -6.5t14 -2h20h458h20t14 2t12.5 6.5t15.5 13.5z" />
    <glyph glyph-name="U" unicode="U" horiz-adv-x="840" 
d="M819 680v-15q-34 -4 -53.5 -16.5t-29.5 -36.5t-13.5 -60t-4.5 -85l-6 -219q-1 -48 -13.5 -95t-44 -83.5t-85.5 -59t-137 -22.5q-77 0 -128 17t-82 44t-45.5 61t-19.5 67.5t-4 64t1 50.5v224q-1 39 -3.5 64.5t-14.5 42.5t-36.5 26.5t-69.5 15.5v15h345v-15q-49 -7 -76 -16
t-39.5 -24.5t-15 -41.5t-2.5 -67v-205q0 -5 -1 -27t3 -53t16.5 -65.5t39 -64t71 -48.5t113.5 -19q54 0 89.5 16t57 42t32 60t14 70.5t3 72.5t-0.5 67v105q0 48 -4 83t-19 59t-45 37.5t-82 18.5v15h290z" />
    <glyph glyph-name="V" unicode="V" horiz-adv-x="700" 
d="M731 680v-15q-35 -3 -59.5 -19t-45 -45.5t-39 -71.5t-41.5 -96l-191 -456h-14l-226 541q-11 27 -22 52t-26.5 45t-38 33t-55.5 17v15h317v-15q-53 -5 -74 -21.5t-23 -38.5t8 -47.5t20 -49.5l160 -386l118 283q32 77 49.5 124t14.5 74.5t-30 40.5t-84 21v15h282z" />
    <glyph glyph-name="W" unicode="W" horiz-adv-x="940" 
d="M257 -23h-10l-163 559q-9 27 -16 47.5t-17.5 35.5t-28.5 26t-49 20v15h283v-15q-46 -7 -66.5 -20t-25 -31.5t2.5 -43.5t16 -56l105 -355l157 418q-8 23 -18 38t-23.5 24.5t-31.5 15.5t-40 10v15h292v-15q-41 -6 -61 -17t-26 -27t-2 -35t11 -41l127 -396l79 225
q6 19 16.5 49.5t20.5 63t17.5 62.5t7.5 48t-8 29.5t-21.5 18.5t-31.5 11t-39 9v15h261v-15q-45 -3 -70 -27t-41 -64l-70 -191l-147 -406h-11l-178 556z" />
    <glyph glyph-name="X" unicode="X" horiz-adv-x="660" 
d="M399 680h251v-15q-39 -4 -66.5 -15.5t-49 -31.5t-41 -48t-42.5 -65l-80 -128l121 -210q17 -30 32.5 -56t35 -45.5t45 -32.5t63.5 -18v-15h-283v15q33 6 45.5 17.5t10 30.5t-17 46t-35.5 65l-72 127q-9 -18 -27.5 -49t-37.5 -65.5t-33.5 -66.5t-14.5 -51q0 -13 6.5 -22
t16 -15t21 -10t21.5 -7v-15h-268v15q45 4 75 16.5t52.5 32.5t40.5 47.5t40 62.5l94 150l-99 176q-16 28 -32 56.5t-36.5 52t-47 39t-63.5 17.5v15h278v-15q-29 -6 -42 -16t-15 -24t5.5 -32t20.5 -41l85 -151q10 18 28 46t35 58.5t30 60t13 49.5q0 13 -6 21.5t-15 14t-20.5 9
t-21.5 5.5v15z" />
    <glyph glyph-name="Y" unicode="Y" horiz-adv-x="600" 
d="M627 680v-15q-33 -3 -58 -13t-45 -26.5t-36.5 -38.5t-32.5 -49l-118 -234v-113q1 -43 3.5 -73t15 -50.5t39 -33t74.5 -19.5v-15h-352v15q48 7 74.5 19.5t39 33t15 50.5t3.5 73v80l-104 227q-14 31 -27.5 59.5t-31.5 51t-43.5 37t-63.5 19.5v15h276v-15
q-31 -4 -45.5 -12.5t-17 -22.5t4.5 -33.5t19 -45.5l100 -216l87 165q23 43 33 73t6.5 49t-21.5 29t-51 14v15h257z" />
    <glyph glyph-name="Z" unicode="Z" horiz-adv-x="700" 
d="M84 680h531l5 -7l-443 -643h95q29 0 63 0.5t68 3.5t67 9t60 17q31 13 52.5 33.5t36.5 46.5t24.5 55.5t16.5 59.5l15 -3q-6 -65 -19.5 -128.5t-38.5 -123.5h-576l-4 7l66 90l381 553h-94h-51q-29 0 -60 -2t-59.5 -6.5t-46.5 -12.5q-20 -9 -35 -25.5t-25.5 -36.5t-17.5 -42
t-11 -42h-16z" />
    <glyph glyph-name="bracketleft" unicode="[" horiz-adv-x="400" 
d="M312 695l-156 -10v-852l156 -10v-23h-224q6 459 0 918h224v-23z" />
    <glyph glyph-name="backslash" unicode="\" horiz-adv-x="280" 
d="M282 -217l-332 918l48 17l332 -918z" />
    <glyph glyph-name="bracketright" unicode="]" horiz-adv-x="400" 
d="M88 -177l156 10v852l-156 10v23h224q-6 -459 0 -918h-224v23z" />
    <glyph glyph-name="asciicircum" unicode="^" 
d="M91 357l164 323h52l161 -323h-56l-132 262l-132 -262h-57z" />
    <glyph glyph-name="underscore" unicode="_" horiz-adv-x="500" 
d="M500 -75v-50h-500v50h500z" />
    <glyph glyph-name="quoteleft" unicode="&#x2018;" horiz-adv-x="300" 
d="M218 677q-15 -11 -31.5 -23.5t-29.5 -27t-21.5 -32t-8.5 -38.5q0 -30 13.5 -43.5t31 -17.5t32.5 0t18 10q11 -9 15.5 -26.5t0 -35t-19.5 -30.5t-44 -13q-24 0 -43.5 9.5t-33.5 25.5t-21.5 37.5t-7.5 44.5q0 31 12 57.5t31.5 48.5t45 39.5t51.5 29.5z" />
    <glyph glyph-name="a" unicode="a" horiz-adv-x="440" 
d="M133 159q-3 -10 -5 -19.5t-2 -20.5q0 -32 17.5 -55.5t52.5 -23.5q20 0 39 11.5t33 25.5v151zM268 248q6 82 -16.5 118t-82.5 36q-26 0 -39 -6t-18 -17.5t-5 -27.5v-37l-50 -3q-6 0 -14.5 1t-8.5 9q0 10 18.5 32t46.5 44t62 38.5t64 16.5q34 0 57.5 -12t37 -33t19.5 -48
t6 -57v-142q0 -33 0.5 -54.5t8 -35.5t25.5 -22.5t53 -15.5v-15q-29 -8 -53.5 -15t-47.5 -7q-32 0 -45.5 17t-17.5 46q-24 -27 -56.5 -47.5t-70.5 -20.5q-24 0 -42.5 9.5t-31.5 25t-19.5 36t-6.5 43.5q0 21 6 44z" />
    <glyph glyph-name="b" unicode="b" 
d="M166 203q0 -35 3.5 -67.5t16 -58t37.5 -41t69 -15.5q21 0 46 9t46.5 30.5t36.5 56.5t15 87q0 45 -14 81.5t-38 62.5t-56.5 40t-68.5 14q-26 0 -48 -6t-45 -16v-177zM89 573q0 16 -0.5 27t-5 20.5t-14.5 19.5t-29 24v10l115 44l11 -4v-318q37 20 80.5 38t86.5 18
q42 0 76.5 -17.5t59 -47t38.5 -67t14 -76.5q0 -66 -27 -114t-68 -79t-89 -46t-89 -15q-45 0 -81.5 11t-77.5 29v543z" />
    <glyph glyph-name="c" unicode="c" horiz-adv-x="440" 
d="M400 402q0 -17 -15 -31.5t-32 -14.5q-13 0 -26.5 10t-28.5 22.5t-31 22.5t-35 10q-30 0 -52 -15.5t-37 -39.5t-22 -52.5t-7 -53.5q0 -48 15.5 -87t41 -66.5t59.5 -42.5t71 -15q31 0 54.5 10.5t48.5 28.5l12 -15q-34 -38 -79 -60.5t-97 -22.5q-46 0 -84 18t-65 48
t-42 69.5t-15 83.5q0 52 21 97t56.5 77t82 50.5t97.5 18.5q12 0 30.5 -1.5t36 -6.5t30 -15t12.5 -27z" />
    <glyph glyph-name="d" unicode="d" 
d="M387 280q0 43 -14.5 70.5t-35.5 43.5t-44 21.5t-41 5.5q-35 0 -60 -16t-41.5 -41.5t-24 -56.5t-7.5 -61q0 -54 14.5 -93t37.5 -64t51.5 -37t56.5 -12q15 0 31 6t30.5 15.5t26.5 22t20 25.5v171zM387 -18v95q-34 -33 -74.5 -60t-90.5 -27q-41 0 -75 18t-59.5 47.5
t-39.5 67t-14 75.5q0 57 21.5 104t58.5 80t86 51.5t104 18.5q44 0 83 -10v131q0 16 -0.5 27t-5 20.5t-14.5 19.5t-29 24v10l115 44l11 -4v-586q0 -35 1.5 -55t9 -30t24.5 -11t49 4l4 -17z" />
    <glyph glyph-name="e" unicode="e" horiz-adv-x="460" 
d="M318 332q-3 17 -10 34.5t-18.5 31.5t-26.5 23t-35 9q-21 0 -38.5 -9.5t-30 -24.5t-21 -34t-12.5 -38zM119 255q-3 -39 8 -75.5t34.5 -64t57.5 -44.5t76 -17q39 0 67 16.5t51 46.5l15 -11q-29 -49 -77 -82.5t-107 -33.5q-47 0 -85.5 18t-66 48t-43 70.5t-15.5 85.5
q0 48 16 91.5t45.5 76.5t71 52.5t92.5 19.5q68 0 109.5 -39.5t44.5 -107.5h-290z" />
    <glyph glyph-name="f" unicode="f" horiz-adv-x="300" 
d="M19 400l81 47q1 45 8.5 85.5t31.5 78.5q29 45 73.5 76t99.5 31q15 0 35 -3.5t38 -11t30.5 -21t12.5 -32.5q0 -24 -17.5 -33.5t-37.5 -8.5q-9 13 -21 27t-26.5 25.5t-30.5 19t-32 7.5q-30 0 -47.5 -22.5t-26.5 -53.5t-11 -64.5t-2 -54.5v-60h130v-42h-130v-274
q0 -31 2 -49t11.5 -28t28.5 -15t54 -9v-15h-253v15q28 4 44 9.5t24 16t10 28.5t2 47v274h-81v10z" />
    <glyph glyph-name="g" unicode="g" horiz-adv-x="540" 
d="M255 165q25 0 41.5 11.5t26 29.5t13.5 40t4 43q0 24 -5.5 49.5t-18 45.5t-32.5 33t-48 13q-24 0 -40.5 -11.5t-26.5 -29t-14.5 -39t-4.5 -41.5q0 -37 10 -64t25.5 -45t34 -26.5t35.5 -8.5zM205 0q-14 -6 -30 -16t-30 -23.5t-23.5 -29t-9.5 -31.5q0 -27 17.5 -45
t42.5 -28.5t53 -15t49 -4.5q27 0 59 6t60 20.5t46.5 37.5t18.5 56q0 23 -9.5 38.5t-25 24t-33.5 12.5t-35.5 5t-31.5 0t-20 -1zM352 76q81 3 123.5 -27t42.5 -81q0 -37 -23.5 -74.5t-65 -67.5t-98.5 -49t-124 -19q-45 0 -76.5 10t-52 25t-30 33t-9.5 34q0 28 13 49
t32.5 37.5t43.5 29.5t45 24q-14 2 -32 7.5t-33.5 15t-26 23t-10.5 30.5q0 12 8.5 24.5t20.5 24.5t25 22t22 17q-36 20 -59 53t-23 75q0 39 16 68.5t42.5 50t60.5 31t69 10.5q37 0 67.5 -8.5t63.5 -23.5h143v-42l-122 3q11 -19 15.5 -37t4.5 -41q0 -38 -16 -68t-42 -50.5
t-59.5 -31t-68.5 -10.5q-40 0 -75 13q-12 -12 -17.5 -27t0.5 -28.5t24 -22.5t53 -7z" />
    <glyph glyph-name="h" unicode="h" 
d="M169 116q0 -31 2 -49t9.5 -28t23 -15t43.5 -9v-15h-233v15q28 4 43.5 9.5t23 16t9.5 28.5t2 47v457q0 16 -0.5 27t-5 20.5t-14.5 19.5t-29 24v10l115 44l11 -4v-328q20 12 40.5 23.5t41.5 21t43.5 15.5t46.5 6q45 0 70.5 -16.5t37.5 -40.5t15 -51.5t3 -49.5v-178
q0 -31 2 -49t9.5 -28t23 -15t43.5 -9v-15h-233v15q28 4 43.5 9.5t23 16t9.5 28.5t2 47v115q0 26 -1.5 56t-12.5 55t-35 41.5t-70 16.5q-31 0 -54 -9t-48 -25v-250z" />
    <glyph glyph-name="i" unicode="i" horiz-adv-x="260" 
d="M121 692q21 0 36 -15t15 -36t-15 -36t-36 -15t-36 15t-15 36t15 36t36 15zM9 0v15q28 4 43.5 9.5t23 16t9.5 28.5t2 47v191q0 16 -1 27t-6.5 20.5t-18 19.5t-35.5 24v10l127 44l11 -4v-332q0 -31 2 -49t9.5 -28t23 -15t43.5 -9v-15h-233z" />
    <glyph glyph-name="j" unicode="j" horiz-adv-x="260" 
d="M138 692q21 0 36 -15t15 -36t-15 -36t-36 -15t-36 15t-15 36t15 36t36 15zM103 295q0 26 -2 39t-10 20.5t-24 13.5t-43 18v10l145 56l11 -4v-424q0 -63 -7.5 -107.5t-29.5 -77t-61.5 -55.5t-101.5 -43l-6 16q49 24 75 49.5t38 59t14 80t2 112.5v237z" />
    <glyph glyph-name="k" unicode="k" horiz-adv-x="500" 
d="M472 448v-15q-41 -8 -72 -21t-57.5 -32.5t-51 -45.5t-53.5 -59l134 -153q30 -32 62.5 -62.5t73.5 -48.5v-11q-17 -2 -34 -4.5t-34 -2.5q-40 0 -79 28.5t-73.5 68.5t-63.5 82.5t-48 70.5q38 46 64 75.5t35.5 48.5t1.5 30t-39 21v15zM164 116q0 -31 2 -49t9.5 -28t23 -15
t43.5 -9v-15h-233v15q28 4 43.5 9.5t23 16t9.5 28.5t2 47v457q0 16 -0.5 27t-5 20.5t-14.5 19.5t-29 24v10l115 44l11 -4v-598z" />
    <glyph glyph-name="l" unicode="l" horiz-adv-x="260" 
d="M9 0v15q28 4 43.5 9.5t23 16t9.5 28.5t2 47v457q0 16 -0.5 27t-5 20.5t-14.5 19.5t-29 24v10l115 44l11 -4v-598q0 -31 2 -49t9.5 -28t23 -15t43.5 -9v-15h-233z" />
    <glyph glyph-name="m" unicode="m" horiz-adv-x="840" 
d="M170 116q0 -31 1.5 -49t8.5 -28t21 -15t39 -9v-15h-220v15q26 4 40.5 9.5t21.5 16t9 28.5t2 47v191q0 16 -0.5 27t-5 20.5t-14.5 19.5t-29 24v10l119 44l11 -4l-8 -77q35 30 76.5 55.5t89.5 25.5q39 0 73.5 -21.5t48.5 -59.5q35 30 76 55.5t90 25.5q37 0 61 -11.5
t38.5 -29.5t21 -41t8.5 -46t1.5 -43.5t-0.5 -33.5v-131q0 -31 1.5 -49t8.5 -28t21 -15t39 -9v-15h-220v15q26 4 40.5 9.5t21.5 16t9 28.5t2 47v106q0 14 0.5 43.5t-8.5 59.5t-33 52.5t-72 22.5q-32 0 -55 -13t-45 -36v-235q0 -31 1.5 -49t8.5 -28t21 -15t39 -9v-15h-220v15
q26 4 40.5 9.5t21.5 16t9 28.5t2 47v106v50q0 31 -9.5 59.5t-33 48.5t-69.5 20q-32 0 -56 -14t-45 -36v-234z" />
    <glyph glyph-name="n" unicode="n" 
d="M92 307q0 16 -0.5 27t-5 20.5t-14.5 19.5t-29 24v10l119 44l11 -4l-8 -73q43 32 85.5 54.5t90.5 22.5q45 0 70.5 -16.5t37.5 -40.5t15 -51.5t3 -49.5v-178q0 -31 2 -49t9.5 -28t23 -15t43.5 -9v-15h-233v15q28 4 43.5 9.5t23 16t9.5 28.5t2 47v115q0 26 -1.5 56t-12.5 55
t-35 41.5t-70 16.5q-31 0 -54 -10t-48 -33v-241q0 -31 2 -49t9.5 -28t23 -15t43.5 -9v-15h-233v15q28 4 43.5 9.5t23 16t9.5 28.5t2 47v191z" />
    <glyph glyph-name="o" unicode="o" 
d="M433 213q0 34 -8.5 72.5t-27.5 70.5t-48 53t-70 21t-69.5 -19t-47 -48.5t-27 -66t-8.5 -70.5q0 -35 10 -72.5t29.5 -69t49.5 -52t71 -20.5q38 0 65.5 19.5t45.5 49t26.5 65t8.5 67.5zM526 223q0 -51 -20 -94t-53.5 -73.5t-78.5 -48t-94 -17.5q-51 0 -96 16t-78.5 45.5
t-52.5 72t-19 95.5q0 52 19.5 94.5t53.5 73.5t79 48t95 17q51 0 95.5 -16t78 -45.5t52.5 -72t19 -95.5z" />
    <glyph glyph-name="p" unicode="p" horiz-adv-x="540" 
d="M150 168q0 -20 2.5 -45.5t14.5 -48t37 -38t70 -15.5q37 0 63 17.5t43 45t25 61t8 64.5q0 57 -19 94t-46 59t-56 31t-48 9q-28 0 -49.5 -6.5t-44.5 -22.5v-205zM150 -126q0 -31 2.5 -49t13 -28t32.5 -15t61 -9v-15h-259v15q26 4 40.5 9.5t21.5 16t9 28.5t2 47v433
q0 16 -0.5 27t-5 20.5t-14.5 19.5t-29 24v10l119 48l11 -4l-4 -61q35 24 75 42.5t84 18.5q43 0 77.5 -17.5t59.5 -46.5t38.5 -67t13.5 -78q0 -48 -21 -94.5t-58.5 -82.5t-89 -57.5t-112.5 -18.5l-67 3v-119z" />
    <glyph glyph-name="q" unicode="q" 
d="M393 261q0 34 -8 63.5t-25 51t-42.5 33.5t-60.5 12q-36 0 -62 -17t-42.5 -43t-24 -58.5t-7.5 -63.5q0 -47 14.5 -83.5t40 -62.5t59 -39.5t72.5 -13.5q23 0 45 5.5t41 18.5v197zM470 -126q0 -29 2 -47t9 -28.5t21.5 -16t40.5 -9.5v-15h-251v15q36 4 56.5 9t30.5 15t12 28
t2 49v172q-35 -23 -73.5 -39.5t-81.5 -16.5q-45 0 -82.5 17t-64 46t-41 68t-14.5 83q0 54 23 99.5t61 78.5t86.5 51.5t99.5 18.5q40 0 70.5 -10.5t62.5 -34.5l22 45h9v-578z" />
    <glyph glyph-name="r" unicode="r" horiz-adv-x="360" 
d="M164 116q0 -31 2 -49t12 -28t30 -15t56 -9v-15h-250v15q26 4 40.5 9.5t21.5 16t9 28.5t2 47v191q0 16 -0.5 27t-5 20.5t-14.5 19.5t-29 24v10l119 44l11 -4l-4 -118h2q8 20 22.5 41.5t33 39.5t40 29.5t45.5 11.5q21 0 36 -12.5t15 -33.5q0 -20 -17.5 -37.5t-34.5 -25.5
q-13 10 -30.5 22t-33.5 11q-32 -3 -48 -26t-23 -51t-7 -52v-30v-101z" />
    <glyph glyph-name="s" unicode="s" horiz-adv-x="360" 
d="M302 330l-22 -4q-5 17 -12.5 35t-18 33t-26 24.5t-36.5 9.5q-31 0 -48.5 -20t-17.5 -50q0 -26 15.5 -44t38.5 -32.5t49.5 -28t49.5 -30.5t38.5 -39.5t15.5 -54.5q0 -33 -14.5 -59t-38 -44t-53.5 -27t-60 -9q-33 0 -64.5 9t-57.5 28l-8 111l23 4q5 -23 14.5 -45.5
t23.5 -40.5t34 -29t47 -11q35 0 56 22.5t21 56.5q0 28 -15.5 46.5t-38.5 33t-49.5 27t-49.5 29t-38.5 39.5t-15.5 59q0 29 12.5 52t33 38.5t46 24t52.5 8.5q29 0 58 -8t53 -25z" />
    <glyph glyph-name="t" unicode="t" horiz-adv-x="340" 
d="M168 176q0 -33 2 -60t12.5 -46t32.5 -29t63 -10q32 0 59 7l4 -16q-38 -14 -77 -23t-81 -9q-36 0 -55 9t-27.5 26t-9 40.5t-0.5 52.5v272h-67l-5 7l140 139h9v-104h158v-42h-158v-214z" />
    <glyph glyph-name="u" unicode="u" 
d="M457 111q0 -14 -1 -27t2 -23.5t12 -17t27 -6.5l46 4l4 -15l-170 -41l3 78q-41 -29 -85.5 -51t-95.5 -22q-42 0 -65 16.5t-33 40t-11.5 48t-1.5 40.5v175v46t-6 33t-21.5 19t-46.5 6v15l151 13v-247v-42q0 -26 8.5 -51t30.5 -43.5t66 -18.5q31 0 59 12t51 32v215
q0 33 -1.5 55t-10.5 35.5t-27.5 19t-52.5 5.5v15l175 13z" />
    <glyph glyph-name="v" unicode="v" horiz-adv-x="460" 
d="M470 442v-15q-23 1 -39.5 -11.5t-29 -32.5t-21.5 -43.5t-18 -43.5l-131 -306h-17l-146 352q-7 17 -13 31.5t-14 26t-21 18.5t-34 9v15h207v-15q-28 0 -40.5 -6t-14.5 -17.5t3 -27t13 -34.5l101 -245l44 106l15 39t20 54.5t17.5 54.5t7.5 38t-6.5 19t-16 11t-20.5 5t-20 3
v15h174z" />
    <glyph glyph-name="w" unicode="w" horiz-adv-x="720" 
d="M228 -10h-15l-144 357q-7 16 -13 30t-15 25t-22 17.5t-33 7.5v15h211v-15q-28 -1 -40.5 -7t-15.5 -16.5t1.5 -25t11.5 -32.5l96 -245l94 222q-12 30 -19 48.5t-16 30t-21.5 17t-34.5 8.5v15h214v-15q-28 -1 -41.5 -7t-17.5 -15t-1.5 -20.5t7.5 -23.5l98 -260q15 33 34 76
t36 84.5t28.5 76.5t11.5 53q0 12 -5 19t-13.5 10.5t-18.5 4.5t-19 2v15h169v-15q-21 -2 -35.5 -9.5t-24.5 -19.5t-17.5 -27.5t-15.5 -32.5l-156 -348h-14l-119 304z" />
    <glyph glyph-name="x" unicode="x" horiz-adv-x="480" 
d="M347 117q12 -21 22.5 -38t24 -30t31 -22t43.5 -12v-15h-211v15q19 3 27.5 9t9.5 14.5t-4.5 20t-13.5 26.5l-56 99q-6 -10 -18 -29.5t-24 -40.5t-21 -40.5t-9 -29.5q0 -13 9 -20t21 -9v-15h-166v15q30 6 49 13t32.5 17.5t25.5 26t29 38.5l62 89l-78 131q-12 20 -22.5 37
t-23 30t-30 20.5t-44.5 9.5v15h216v-15q-23 -2 -32 -8.5t-9.5 -15.5t4.5 -19t10 -19l56 -100q6 11 16.5 28.5t21 36t18.5 36.5t8 29q0 14 -9 22t-23 10v15h167v-15q-26 -2 -43 -6.5t-37 -21.5q-12 -11 -26 -28t-28 -37.5t-28 -42.5t-26 -41z" />
    <glyph glyph-name="y" unicode="y" horiz-adv-x="460" 
d="M58 364q-7 17 -12 28t-12 17.5t-18 10.5t-30 7v15h207v-15q-29 -2 -41 -10.5t-13.5 -22.5t4.5 -31.5t14 -36.5l98 -254l62 180q17 49 26 81t8 51.5t-14 29t-41 13.5v15h175v-15q-33 -4 -48 -18t-29 -43l-42 -97l-154 -387q-14 -35 -26 -58.5t-24 -38t-25 -21t-28 -6.5
q-20 0 -34.5 14.5t-14.5 35.5q0 16 8.5 29t23.5 18q4 -2 11 -7t15 -9.5t15 -8t12 -3.5q8 0 15.5 8.5t13.5 20t10.5 23t7.5 17.5l33 77z" />
    <glyph glyph-name="z" unicode="z" horiz-adv-x="480" 
d="M433 442l4 -7q-75 -103 -148.5 -204.5t-139.5 -204.5h69q47 0 82.5 2.5t61.5 16t44.5 42t30.5 80.5l17 -3l-39 -164h-375l-5 8q150 204 288 408h-26q-65 0 -104 -1.5t-62 -11t-33.5 -30.5t-18.5 -61l-18 3l11 127h361z" />
    <glyph glyph-name="braceleft" unicode="{" horiz-adv-x="400" 
d="M169 142q0 30 -4 49.5t-12.5 32.5t-21.5 21.5t-31 15.5q22 6 35.5 16t21 25t10 36.5t2.5 51.5v185q0 42 6.5 70t22 44.5t41 23t63.5 5.5v-2q-41 -14 -55 -42.5t-14 -80.5v-184q0 -29 -2.5 -53t-10 -43t-22.5 -32t-40 -19v-2q36 -5 55.5 -36.5t19.5 -100.5v-198
q0 -52 14 -80.5t55 -42.5v-2q-38 -1 -63.5 5.5t-41 23t-22 44.5t-6.5 70v199z" />
    <glyph glyph-name="bar" unicode="|" horiz-adv-x="280" 
d="M113 750h54v-1000h-54v1000z" />
    <glyph glyph-name="braceright" unicode="}" horiz-adv-x="400" 
d="M251 376q0 -30 4 -49.5t12.5 -32.5t21.5 -21.5t31 -15.5q-22 -6 -35.5 -16t-21 -25t-10 -36.5t-2.5 -51.5v-185q0 -42 -6.5 -70t-22 -44.5t-41 -23t-63.5 -5.5v2q41 14 55 42.5t14 80.5v184q0 28 2.5 52.5t10 43.5t22.5 32t40 19v2q-36 5 -55.5 36.5t-19.5 100.5v198
q0 52 -14 80.5t-55 42.5v2q38 1 63.5 -5.5t41 -23t22 -44.5t6.5 -70v-199z" />
    <glyph glyph-name="asciitilde" unicode="~" 
d="M389 220q32 0 51.5 19.5t35.5 43.5l41 -25q-12 -17 -24.5 -33.5t-27.5 -29t-33.5 -20t-41.5 -7.5q-28 0 -53 9.5t-49.5 21t-51.5 21t-60 9.5q-35 0 -56 -21.5t-38 -48.5l-40 27q12 19 25.5 36.5t29.5 30.5t36 20.5t45 7.5t53.5 -9.5t57 -21t54.5 -21t46 -9.5z" />
    <glyph glyph-name="exclamdown" unicode="&#xa1;" horiz-adv-x="320" 
d="M156 343q-23 0 -38.5 15.5t-15.5 38.5t15.5 39t38.5 16t39 -16t16 -39t-16 -38.5t-39 -15.5zM168 235l36 -354l4 -63q0 -12 -2.5 -24.5t-8 -22.5t-15 -16.5t-23.5 -6.5t-23.5 6.5t-15.5 16.5t-8.5 22.5t-2.5 24.5l4 63l36 354h19z" />
    <glyph glyph-name="cent" unicode="&#xa2;" 
d="M300 546q-36 -3 -63 -22t-44.5 -47t-26.5 -62t-9 -65q0 -34 9 -69.5t26.5 -66t44.5 -53.5t63 -32v417zM324 568q36 -2 72 -7.5t69 -21.5l10 -115h-17q-8 24 -19.5 46t-27.5 38.5t-37.5 26.5t-49.5 11v-417q30 -1 53 9.5t40 28t29.5 41t21.5 48.5l17 -5l-27 -118
q-32 -11 -65.5 -19t-68.5 -7v-93h-24v93q-47 6 -88.5 23t-72.5 44.5t-49 67t-18 90.5q0 50 18 91t48.5 71.5t72 49.5t89.5 24v95h24v-95z" />
    <glyph glyph-name="sterling" unicode="&#xa3;" 
d="M92 51q-29 -21 -51.5 -29t-38.5 -5.5t-24.5 13t-8.5 25.5q0 17 11.5 26t27.5 13.5t33.5 5.5t29.5 1h23q28 49 43.5 103t26.5 109h-94v30h102q11 66 32 130.5t54.5 116.5t81 84t111.5 32q19 0 38.5 -5t36 -15.5t27 -27t10.5 -38.5q0 -16 -6.5 -29t-18.5 -21.5t-28.5 -10.5
t-35.5 4q10 20 12 41t-3.5 38.5t-18.5 29t-32 11.5q-28 0 -50.5 -19.5t-41 -50t-32 -69t-24 -76t-17.5 -71t-12 -54.5h131v-30h-136q-14 -62 -42 -117.5t-72 -102.5l160 -36q33 -8 65.5 -16.5t67.5 -8.5q28 0 46 6.5t28 16t14 19.5t4 18q0 10 -5.5 17t-11.5 13.5t-11.5 15.5
t-5.5 23t8.5 25t23.5 11q22 0 29 -19t7 -37q0 -34 -15.5 -64.5t-41 -53t-57.5 -36t-65 -13.5q-41 0 -85 12.5t-82 25.5z" />
    <glyph glyph-name="fraction" unicode="&#x2044;" horiz-adv-x="80" 
d="M-129 0h-48l382 680h48z" />
    <glyph glyph-name="fraction" unicode="&#x2215;" horiz-adv-x="80" 
d="M-129 0h-48l382 680h48z" />
    <glyph glyph-name="yen" unicode="&#xa5;" 
d="M361 551q12 22 17.5 41t1 33.5t-22 24.5t-51.5 15v15h256v-15q-65 -6 -102.5 -38.5t-66.5 -88.5l-71 -135h140v-30h-157v-92h150v-30h-150v-61q0 -43 2.5 -74t15.5 -51.5t40 -32.5t75 -17v-15h-349v15q48 7 74.5 19.5t39 32.5t15 50t2.5 73v61h-145v30h145v65l-12 27
h-139v30h126l-48 102q-14 29 -27.5 56t-31.5 49t-42.5 36.5t-60.5 18.5v15h273v-15q-34 -5 -48.5 -15.5t-16.5 -25.5t5.5 -33.5t17.5 -39.5l69 -148z" />
    <glyph glyph-name="florin" unicode="&#x192;" 
d="M425 417v-30h-145l-19 -90q-7 -35 -16 -81t-22.5 -96t-32.5 -98t-47 -86t-65 -61.5t-87 -23.5q-26 0 -43.5 12.5t-24 30.5t1 37.5t32.5 33.5q7 -9 18 -21t23.5 -22.5t26 -17.5t25.5 -7q18 0 33 24t26.5 55.5t19 62t10.5 43.5l62 305h-105v30h112q12 51 25 102t36 99
q18 37 44.5 63t54.5 42t53 23t41 7q26 0 47.5 -19t21.5 -46q0 -17 -8.5 -29t-21.5 -23q-8 12 -19.5 24.5t-25.5 22.5t-29 16.5t-30 6.5q-20 0 -34 -21.5t-26 -60t-23.5 -91.5t-26.5 -116h138z" />
    <glyph glyph-name="section" unicode="&#xa7;" horiz-adv-x="540" 
d="M175 583q-31 -29 -45 -69.5t-14 -82.5q0 -51 19 -96.5t47.5 -86.5t61.5 -79t61.5 -76t47.5 -76.5t19 -80.5q0 -15 -3 -30t-7 -29q35 32 50.5 74t15.5 89q0 54 -19 99t-47 85t-61.5 77t-61.5 75t-47 79.5t-19 90.5zM361 704q21 0 43 -6t41 -17.5t31 -29.5t12 -42
q0 -26 -17.5 -46.5t-44.5 -20.5q-15 0 -28 7.5t-20.5 21t-6.5 32.5t16 42q-15 11 -28 20t-33 9t-36 -9t-26.5 -24t-16 -33.5t-5.5 -36.5q0 -33 18.5 -65.5t46 -66.5t60 -69.5t60 -75.5t46 -85t18.5 -97q0 -61 -25.5 -122t-69 -110t-100.5 -80t-121 -31q-21 0 -43 5.5
t-39 16.5t-28 29t-11 42q0 27 18 46t45 19q16 0 29 -8t20 -21.5t6.5 -31.5t-11.5 -39q19 -28 54 -28q19 0 34.5 8.5t26.5 22t17 30.5t6 35q0 34 -18 67.5t-45 68t-58.5 71t-58.5 76.5t-45 84.5t-18 96.5q0 57 24.5 118.5t66.5 111.5t97.5 82.5t116.5 32.5z" />
    <glyph glyph-name="currency" unicode="&#xa4;" 
d="M279 148q33 0 62 12.5t50.5 34t33.5 51t12 63.5t-11.5 64t-32.5 52.5t-50 35.5t-63 13q-33 0 -62 -13t-50.5 -35t-33.5 -52t-12 -63t12 -62.5t33 -52t50 -35.5t62 -13zM117 175q-24 31 -36 66.5t-12 70.5q0 36 12 70.5t36 63.5l-50 49l27 27l49 -49q31 24 68 36.5
t74 12.5t71 -12.5t60 -36.5l49 49l27 -27l-49 -49q24 -30 35.5 -64t11.5 -70q0 -35 -11.5 -70t-35.5 -67l49 -50l-27 -26l-49 49q-29 -25 -65 -36.5t-73 -11.5q-36 0 -71.5 12.5t-63.5 35.5l-49 -49l-27 26z" />
    <glyph glyph-name="quotesingle" unicode="'" horiz-adv-x="300" 
d="M124 611q-1 9 -1.5 23t1.5 27t9 22t22 9t22 -9t10 -22t2.5 -27t-1.5 -23l-23 -204q-1 -6 -2 -18.5t-11 -12.5t-10.5 12.5t-1.5 18.5z" />
    <glyph glyph-name="quotedblleft" unicode="&#x201c;" horiz-adv-x="520" 
d="M220 677q-15 -11 -31.5 -23.5t-29.5 -27t-21.5 -32t-8.5 -38.5q0 -30 13.5 -43.5t31 -17.5t32.5 0t18 10q11 -9 15.5 -26.5t0 -35t-19.5 -30.5t-44 -13q-24 0 -43.5 9.5t-33.5 25.5t-21.5 37.5t-7.5 44.5q0 31 12 57.5t31.5 48.5t45 39.5t51.5 29.5zM436 677
q-15 -11 -31.5 -23.5t-29.5 -27t-21.5 -32t-8.5 -38.5q0 -30 13.5 -43.5t31 -17.5t32.5 0t18 10q11 -9 15.5 -26.5t0 -35t-19.5 -30.5t-44 -13q-24 0 -43.5 9.5t-33.5 25.5t-21.5 37.5t-7.5 44.5q0 31 12 57.5t31.5 48.5t45 39.5t51.5 29.5z" />
    <glyph glyph-name="guillemotleft" unicode="&#xab;" horiz-adv-x="500" 
d="M402 404l5 5t8 8.5t8 7.5t6 3q7 0 7 -8q0 -10 -15 -34t-35.5 -51t-40 -51.5t-28.5 -34.5q5 -6 16.5 -19t25 -30t28 -36t26.5 -35.5t19.5 -29.5t7.5 -18q0 -3 -2 -6t-6 -3q-6 0 -15 10t-13 14l-168 153zM225 404l5 5t8 8.5t8 7.5t6 3q7 0 7 -8q0 -10 -15 -34t-35.5 -51
t-40 -51.5t-28.5 -34.5q5 -6 16.5 -19t25 -30t28 -36t26.5 -35.5t19.5 -29.5t7.5 -18q0 -3 -2 -6t-6 -3q-6 0 -15 10t-13 14l-168 153z" />
    <glyph glyph-name="guilsinglleft" unicode="&#x2039;" horiz-adv-x="320" 
d="M224 404l5 5t8 8.5t8 7.5t6 3q7 0 7 -8q0 -10 -15 -34t-35.5 -51t-40 -51.5t-28.5 -34.5q5 -6 16.5 -19t25 -30t28 -36t26.5 -35.5t19.5 -29.5t7.5 -18q0 -3 -2 -6t-6 -3q-6 0 -15 10t-13 14l-168 153z" />
    <glyph glyph-name="guilsinglright" unicode="&#x203a;" horiz-adv-x="320" 
d="M100 94l-5.5 -5.5t-7.5 -8t-8 -7.5t-6 -3q-7 0 -7 8q0 10 15 34t35.5 51t40 51t28.5 35q-5 5 -16.5 18.5t-25 30.5t-28 36t-26.5 35.5t-19.5 29.5t-7.5 18q0 3 2 6t6 3q6 0 15 -10t13 -14l168 -153z" />
    <glyph glyph-name="fi" unicode="&#xfb01;" horiz-adv-x="540" 
d="M19 400l81 47q0 52 10 101t34 86.5t64.5 60.5t100.5 23q17 0 43 -3t50.5 -11.5t42 -23t17.5 -37.5q0 -17 -9 -27t-21.5 -14.5t-25 -4t-19.5 3.5q-22 37 -47 61.5t-68 24.5q-32 0 -51 -15t-29 -46.5t-12.5 -79.5t-1.5 -114h176q27 0 47.5 7.5t40.5 12.5l11 -4v-332
q0 -31 2 -49t9.5 -28t23 -15t43.5 -9v-15h-233v15q28 4 43.5 9.5t23 16t9.5 28.5t2 47v191q0 27 -2 43t-7.5 25t-16 12t-28.5 3h-145v-274q0 -31 1.5 -49t9 -28t22.5 -15t41 -9v-15h-231v15q28 4 44 9.5t24 16t10 28.5t2 47v274h-81v10z" />
    <glyph glyph-name="fl" unicode="&#xfb02;" horiz-adv-x="540" 
d="M19 400l81 47q-2 45 7 93t31.5 87.5t59.5 65t92 25.5q17 0 31 -3.5t25.5 -7t21 -7t17.5 -3.5q10 0 23.5 8t33.5 13l11 -4v-598q0 -31 2 -49t9.5 -28t23 -15t43.5 -9v-15h-233v15q28 4 43.5 9.5t23 16t9.5 28.5t2 47v417q0 6 0.5 31t-6.5 52t-26 49t-58 22
q-44 0 -66.5 -23.5t-32 -60.5t-10 -82.5t-0.5 -88.5h130v-42h-130v-274q0 -31 1.5 -49t9 -28t22.5 -15t41 -9v-15h-231v15q28 4 44 9.5t24 16t10 28.5t2 47v274h-81v10z" />
    <glyph glyph-name="endash" unicode="&#x2013;" horiz-adv-x="500" 
d="M0 274h500v-48h-500v48z" />
    <glyph glyph-name="dagger" unicode="&#x2020;" horiz-adv-x="540" 
d="M321 680l-17 -195l168 13v-94l-168 14l17 -638h-103l18 638l-169 -14v94l169 -13l-18 195h103z" />
    <glyph glyph-name="daggerdbl" unicode="&#x2021;" horiz-adv-x="540" 
d="M67 408v94l169 -13l-18 191h103l-17 -191l168 13v-94l-168 14v-383l168 14v-94l-168 13l17 -192h-102l17 192l-169 -13v94l169 -14v383z" />
    <glyph glyph-name="periodcentered" unicode="&#xb7;" horiz-adv-x="280" 
d="M140 166q-23 0 -38.5 15.5t-15.5 38.5t15.5 39t38.5 16t39 -16t16 -39t-16 -38.5t-39 -15.5z" />
    <glyph glyph-name="periodcentered" unicode="&#x2219;" horiz-adv-x="280" 
d="M140 166q-23 0 -38.5 15.5t-15.5 38.5t15.5 39t38.5 16t39 -16t16 -39t-16 -38.5t-39 -15.5z" />
    <glyph glyph-name="paragraph" unicode="&#xb6;" horiz-adv-x="600" 
d="M344 657v-877h-191v15q47 7 74.5 16.5t41.5 27t17.5 46t3.5 73.5v335q-44 5 -90.5 17.5t-84 36t-61.5 60t-24 89.5q0 56 29 92t72.5 57t95 29t95.5 8h72l181 -9v-15q-48 -5 -72 -16t-34 -32.5t-10.5 -54.5t-0.5 -82v-515q0 -45 3.5 -73.5t16 -46t37.5 -27t67 -16.5v-15
h-178v877h-60z" />
    <glyph glyph-name="bullet" unicode="&#x2022;" horiz-adv-x="600" 
d="M130 340q0 36 13 67.5t36 54.5t53.5 36t66.5 13t67.5 -13t54.5 -36t36 -54.5t13 -67.5t-13 -67t-36 -53.5t-54.5 -35.5t-67.5 -13t-66.5 13t-53.5 35.5t-36 53.5t-13 67z" />
    <glyph glyph-name="quotesinglbase" unicode="&#x201a;" horiz-adv-x="300" 
d="M90 -180q15 11 31.5 23.5t29.5 27t21.5 32t8.5 38.5q0 30 -13.5 43.5t-31 17.5t-32.5 0t-18 -10q-11 9 -15.5 26.5t0 35t19.5 30.5t44 13q24 0 43.5 -9.5t33.5 -25.5t21.5 -37.5t7.5 -44.5q0 -31 -12 -57.5t-31.5 -48.5t-45 -39.5t-51.5 -29.5z" />
    <glyph glyph-name="quotedblbase" unicode="&#x201e;" horiz-adv-x="520" 
d="M308 -180q15 11 31.5 23.5t29.5 27t21.5 32t8.5 38.5q0 30 -13.5 43.5t-31 17.5t-32.5 0t-18 -10q-11 9 -15.5 26.5t0 35t19.5 30.5t44 13q24 0 43.5 -9.5t33.5 -25.5t21.5 -37.5t7.5 -44.5q0 -31 -12 -57.5t-31.5 -48.5t-45 -39.5t-51.5 -29.5zM90 -180q15 11 31.5 23.5
t29.5 27t21.5 32t8.5 38.5q0 30 -13.5 43.5t-31 17.5t-32.5 0t-18 -10q-11 9 -15.5 26.5t0 35t19.5 30.5t44 13q24 0 43.5 -9.5t33.5 -25.5t21.5 -37.5t7.5 -44.5q0 -31 -12 -57.5t-31.5 -48.5t-45 -39.5t-51.5 -29.5z" />
    <glyph glyph-name="quotedblright" unicode="&#x201d;" horiz-adv-x="520" 
d="M308 415q15 11 31.5 23.5t29.5 27t21.5 32t8.5 38.5q0 30 -13.5 43.5t-31 17.5t-32.5 0t-18 -10q-11 9 -15.5 26.5t0 35t19.5 30.5t44 13q24 0 43.5 -9.5t33.5 -25.5t21.5 -37.5t7.5 -44.5q0 -31 -12 -57.5t-31.5 -48.5t-45 -39.5t-51.5 -29.5zM90 415q15 11 31.5 23.5
t29.5 27t21.5 32t8.5 38.5q0 30 -13.5 43.5t-31 17.5t-32.5 0t-18 -10q-11 9 -15.5 26.5t0 35t19.5 30.5t44 13q24 0 43.5 -9.5t33.5 -25.5t21.5 -37.5t7.5 -44.5q0 -31 -12 -57.5t-31.5 -48.5t-45 -39.5t-51.5 -29.5z" />
    <glyph glyph-name="guillemotright" unicode="&#xbb;" horiz-adv-x="500" 
d="M98 94l-5.5 -5.5t-7.5 -8t-8 -7.5t-6 -3q-7 0 -7 8q0 10 15 34t35.5 51t40 51t28.5 35q-5 5 -16.5 18.5t-25 30.5t-28 36t-26.5 35.5t-19.5 29.5t-7.5 18q0 3 2 6t6 3q6 0 15 -10t13 -14l168 -153zM275 94l-5.5 -5.5t-7.5 -8t-8 -7.5t-6 -3q-7 0 -7 8q0 10 15 34t35.5 51
t40 51t28.5 35q-5 5 -16.5 18.5t-25 30.5t-28 36t-26.5 35.5t-19.5 29.5t-7.5 18q0 3 2 6t6 3q6 0 15 -10t13 -14l168 -153z" />
    <glyph glyph-name="ellipsis" unicode="&#x2026;" horiz-adv-x="1000" 
d="M499 -12q-23 0 -38.5 15.5t-15.5 38.5t15.5 39t38.5 16t39 -16t16 -39t-16 -38.5t-39 -15.5zM832 -12q-23 0 -38.5 15.5t-15.5 38.5t15.5 39t38.5 16t39 -16t16 -39t-16 -38.5t-39 -15.5zM166 -12q-23 0 -38.5 15.5t-15.5 38.5t15.5 39t38.5 16t39 -16t16 -39t-16 -38.5
t-39 -15.5z" />
    <glyph glyph-name="perthousand" unicode="&#x2030;" horiz-adv-x="960" 
d="M797 316q-21 0 -33.5 -18.5t-19 -43.5t-8.5 -50.5t-2 -39.5t2 -39.5t8.5 -51t19 -44.5t33.5 -19t33 19t18.5 44.5t8.5 51t2 39.5q0 13 -2 38.5t-8.5 51t-18.5 44t-33 18.5zM481 316q-21 0 -33.5 -18.5t-19 -43.5t-8.5 -50.5t-2 -39.5t2 -39.5t8.5 -51t19 -44.5t33.5 -19
t33 19t18.5 44.5t8.5 51t2 39.5q0 13 -2 38.5t-8.5 51t-18.5 44t-33 18.5zM158 672q-21 0 -33.5 -18.5t-19 -43.5t-8.5 -50.5t-2 -39.5t2 -39.5t8.5 -51t19 -44.5t33.5 -19t33 19t18.5 44.5t8.5 51t2 39.5q0 13 -2 38.5t-8.5 51t-18.5 44t-33 18.5zM152 0h-48l383 680h48z
M159 692q34 0 58 -16t39 -41t21.5 -56t6.5 -60t-7 -59.5t-22 -56t-39 -41.5t-58 -16q-35 0 -59 16t-39 41t-22 56t-7 60q0 30 7 61t22 55.5t39.5 40.5t59.5 16zM798 336q34 0 58 -16t39 -41t21.5 -56t6.5 -60t-7 -59.5t-22 -56t-39 -41.5t-58 -16q-35 0 -59 16t-39 41
t-22 56t-7 60q0 30 7 61t22 55.5t39.5 40.5t59.5 16zM482 336q34 0 58 -16t39 -41t21.5 -56t6.5 -60t-7 -59.5t-22 -56t-39 -41.5t-58 -16q-35 0 -59 16t-39 41t-22 56t-7 60q0 30 7 61t22 55.5t39.5 40.5t59.5 16z" />
    <glyph glyph-name="questiondown" unicode="&#xbf;" horiz-adv-x="360" 
d="M236 343q-23 0 -38.5 15.5t-15.5 38.5t15.5 39t38.5 16t39 -16t16 -39t-16 -38.5t-39 -15.5zM267 274l8 -110q3 -34 -8.5 -52.5t-29.5 -27.5t-40 -12.5t-41 -9t-32 -16t-13 -32.5q0 -21 15 -37t36 -29.5t44 -26.5t39 -28q26 -24 24 -59t-17 -86l-17 4q-1 18 -5.5 29.5
t-12.5 20.5t-19 16.5t-24 16.5q-24 16 -40.5 28.5t-27 29.5t-15 42.5t-4.5 69.5q0 60 10.5 90t26.5 42.5t35 15t36 7t30.5 18.5t17.5 51l5 45h19z" />
    <glyph glyph-name="grave" unicode="`" horiz-adv-x="340" 
d="M244 509l-14 -12l-182 170l47 49z" />
    <glyph glyph-name="acute" unicode="&#xb4;" horiz-adv-x="340" 
d="M292 667l-182 -170l-14 12l149 207z" />
    <glyph glyph-name="circumflex" unicode="&#x2c6;" horiz-adv-x="360" 
d="M64 504l112 234h9l111 -234l-14 -7l-103 146l-99 -146z" />
    <glyph glyph-name="tilde" unicode="&#x2dc;" horiz-adv-x="500" 
d="M137 578q-17 0 -33.5 -7.5t-30.5 -15.5l-9 14q10 7 24.5 16.5t31 18t32 14.5t27.5 6q16 0 37 -8.5t42.5 -18.5t42 -18.5t37.5 -8.5q23 0 46.5 15t39.5 31l11 -11q-12 -13 -28 -27.5t-34 -26.5t-37 -20t-37 -8t-39 8.5t-43 19t-42.5 19t-37.5 8.5z" />
    <glyph glyph-name="macron" unicode="&#xaf;" horiz-adv-x="440" 
d="M67 568v54h306v-54h-306z" />
    <glyph glyph-name="macron" unicode="&#x2c9;" horiz-adv-x="440" 
d="M67 568v54h306v-54h-306z" />
    <glyph glyph-name="breve" unicode="&#x2d8;" horiz-adv-x="380" 
d="M309 672q0 -26 -7 -54t-22 -51t-37.5 -38t-52.5 -15q-31 0 -53.5 15t-37 38t-21.5 51t-7 54l17 2q7 -40 32.5 -70.5t69.5 -30.5q22 0 39.5 8.5t30 22.5t20.5 32t12 38z" />
    <glyph glyph-name="dotaccent" unicode="&#x2d9;" horiz-adv-x="240" 
d="M167 575q0 -20 -13.5 -34t-33.5 -14t-34 14t-14 34t14 33.5t34 13.5t33.5 -13.5t13.5 -33.5z" />
    <glyph glyph-name="dieresis" unicode="&#xa8;" horiz-adv-x="420" 
d="M353 575q0 -20 -14 -34t-34 -14t-33.5 14t-13.5 34t13.5 33.5t33.5 13.5t34 -13.5t14 -33.5zM162 575q0 -20 -13.5 -34t-33.5 -14t-34 14t-14 34t14 33.5t34 13.5t33.5 -13.5t13.5 -33.5z" />
    <glyph glyph-name="ring" unicode="&#x2da;" horiz-adv-x="320" 
d="M216 582q0 23 -15.5 43t-41.5 20q-25 0 -40.5 -20t-15.5 -43q0 -24 15.5 -44t40.5 -20q26 0 41.5 20t15.5 44zM248 582q0 -37 -26 -63t-63 -26q-18 0 -34 7t-28 19t-19 28.5t-7 34.5t7 34t19 28t28 19t34 7q37 0 63 -25.5t26 -62.5z" />
    <glyph glyph-name="cedilla" unicode="&#xb8;" horiz-adv-x="300" 
d="M118 -53q0 8 5.5 16t13.5 15t17 12.5t15 9.5h28q-7 -6 -16 -14.5t-9 -18.5q0 -8 9 -18t20 -21.5t20 -25t9 -29.5q0 -14 -9 -30t-24 -29.5t-33.5 -22.5t-37.5 -9q-18 0 -37 10t-19 31q0 10 5.5 17.5t16.5 7.5q10 0 19 -5t18 -10.5t17.5 -10.5t19.5 -5q9 0 15.5 5.5
t6.5 15.5q0 12 -11 25t-24 27.5t-24 28.5t-11 28z" />
    <glyph glyph-name="hungarumlaut" unicode="&#x2dd;" horiz-adv-x="520" 
d="M472 667l-182 -170l-14 12l149 207zM290 667l-182 -170l-14 12l149 207z" />
    <glyph glyph-name="ogonek" unicode="&#x2db;" horiz-adv-x="320" 
d="M209 0v-2q-14 -3 -28 -11t-26 -19.5t-19.5 -25.5t-7.5 -29q0 -24 16.5 -40t39.5 -16q19 0 33 8t27 20l11 -12q-19 -23 -45 -38.5t-57 -15.5q-15 0 -31 4.5t-29 13.5t-21 22t-8 30q0 20 8.5 37t22.5 31.5t31 25t34 17.5h49z" />
    <glyph glyph-name="caron" unicode="&#x2c7;" horiz-adv-x="360" 
d="M296 730l-112 -233h-9l-111 233l14 8l103 -146l100 146z" />
    <glyph glyph-name="emdash" unicode="&#x2014;" horiz-adv-x="1000" 
d="M0 274h1000v-48h-1000v48z" />
    <glyph glyph-name="AE" unicode="&#xc6;" horiz-adv-x="960" 
d="M459 364v281h-2l-167 -281h169zM264 322l-30 -54q-8 -15 -24 -44t-32.5 -60.5t-28.5 -60t-12 -41.5q0 -15 11 -23t26 -12.5t31 -6.5t27 -5v-15h-259v15q17 4 30 9t24 11.5t20.5 16t20.5 24.5l99 154l185 293q25 40 37.5 66t9.5 41.5t-22.5 23t-59.5 11.5v15h540l-15 -152
h-15q-3 48 -19.5 74t-42 38t-60 14t-73.5 2h-85v-292h84q28 0 53 2.5t43.5 12t31 28t16.5 50.5h15v-223h-19q-3 33 -14.5 51t-30 26.5t-43 9.5t-52.5 1h-84v-135q0 -35 1 -65t13 -51.5t41 -34t85 -12.5q48 0 83.5 10t60 31t41 53.5t27.5 77.5h15q-2 -50 -12.5 -99t-24.5 -97
h-534v15q43 8 66.5 19t34.5 27.5t13 41.5t2 61v158h-195z" />
    <glyph glyph-name="ordfeminine" unicode="&#xaa;" horiz-adv-x="540" 
d="M202 476q-2 -7 -3 -13.5t-1 -13.5q0 -21 12 -37.5t35 -16.5q14 0 27 7.5t23 17.5v102zM354 482v-40q0 -15 5.5 -24.5t19 -16t39.5 -12.5v-16q-18 -5 -36.5 -12.5t-38.5 -7.5q-21 0 -33 12.5t-14 33.5q-17 -19 -40.5 -32.5t-49.5 -13.5q-38 0 -56.5 26.5t-18.5 61.5
q0 14 5 31l159 72q0 23 -1.5 42t-8.5 33t-20.5 22t-38.5 8q-16 0 -24.5 -3.5t-12 -11t-4 -19.5t-0.5 -28l-40 -3q-5 0 -12 1.5t-7 8.5q0 10 14 26.5t34.5 32.5t45 27.5t45.5 11.5q27 0 44 -9.5t27 -25.5t14 -37t4 -43v-95z" />
    <glyph glyph-name="Oslash" unicode="&#xd8;" horiz-adv-x="840" 
d="M274 79q34 -32 72.5 -49.5t86.5 -17.5q43 0 85.5 20t76.5 58.5t54.5 95.5t20.5 131q0 66 -19 131t-58 118zM567 593q-33 35 -72 55t-87 20q-62 0 -107 -26.5t-74 -69.5t-43.5 -97t-14.5 -108q0 -72 18.5 -137.5t63.5 -123.5zM701 732l-63 -97q73 -52 110.5 -126.5
t37.5 -163.5q0 -81 -27 -147t-75.5 -112.5t-115.5 -72t-147 -25.5q-48 0 -94 8.5t-88 29.5l-69 -108l-31 22l69 104q-79 48 -117 128.5t-38 171.5q0 76 26.5 140t75.5 110t118 72t154 26q46 0 91.5 -9.5t87.5 -29.5l63 98z" />
    <glyph glyph-name="OE" unicode="&#x152;" horiz-adv-x="1020" 
d="M459 656q-74 0 -128.5 -23.5t-90.5 -66t-54 -101t-18 -127.5q0 -86 25 -145.5t63.5 -97t85.5 -54.5t91 -17q36 0 54.5 14t26.5 36.5t8.5 49.5t0.5 54v475zM611 162q0 -41 4 -67.5t17.5 -42.5t39 -22t69.5 -6q51 0 85.5 11t58 32.5t38.5 55t28 78.5h15l-38 -201l-481 -4
q-77 -1 -147.5 22t-125.5 67t-87.5 108.5t-32.5 147.5q0 86 33 150.5t88.5 107.5t128 64.5t151.5 20.5l465 -4l-15 -161h-15q0 15 -4 38.5t-17.5 45.5t-39.5 37.5t-69 15.5h-149v-285h74q28 0 52.5 2.5t43 11.5t31 27.5t17.5 50.5h15v-223h-15q-5 33 -17.5 51.5t-31 26.5
t-43 9.5t-52.5 1.5h-74v-167z" />
    <glyph glyph-name="ordmasculine" unicode="&#xba;" horiz-adv-x="540" 
d="M380 517q0 24 -6 50.5t-19.5 49t-34 37.5t-49.5 15q-28 0 -48.5 -13t-33.5 -34t-19 -46.5t-6 -49.5t7 -50.5t21.5 -48.5t35.5 -36.5t49 -14.5q27 0 46 13.5t32 34.5t19 45.5t6 47.5zM452 520q0 -36 -15 -67t-40 -53t-57.5 -34.5t-67.5 -12.5q-37 0 -69.5 11.5t-57 33
t-39 52t-14.5 69.5t14.5 70.5t39 54.5t57.5 35.5t71 12.5q39 0 71.5 -12.5t56 -35t37 -54t13.5 -70.5z" />
    <glyph glyph-name="ae" unicode="&#xe6;" horiz-adv-x="640" 
d="M507 318q-1 18 -6 34t-14 28.5t-23 20t-34 7.5q-29 0 -46.5 -13.5t-26.5 -35t-11.5 -48.5t-0.5 -55zM136 157q-4 -11 -7 -22t-3 -23q0 -31 17 -51.5t49 -20.5q28 0 46.5 11t38.5 29q-8 30 -8.5 61.5t-0.5 69.5zM345 238q-6 -87 20 -133.5t94 -46.5q49 0 82 26.5t59 64.5
l16 -10q-15 -27 -35 -53.5t-45 -48t-54 -34.5t-63 -13q-44 0 -79 19t-57 57q-28 -32 -63 -54t-79 -22q-24 0 -42.5 9.5t-31.5 25t-19.5 36t-6.5 43.5q0 21 6 44l221 83q1 33 0 63.5t-10 54.5t-29.5 38.5t-59.5 14.5q-21 0 -34 -5t-20 -16t-9 -29.5t-2 -45.5h-37
q-4 0 -9.5 -0.5t-11 0.5t-9 3.5t-3.5 8.5q0 7 6.5 17t15.5 20.5t17.5 19t12.5 11.5q13 11 29 23t33.5 21.5t36 15.5t36.5 6q86 0 114 -85q23 35 59 60t80 25q28 0 50 -10.5t37.5 -28t24.5 -41t12 -49.5z" />
    <glyph glyph-name="dotlessi" unicode="&#x131;" horiz-adv-x="260" 
d="M9 0v15q28 4 43.5 9.5t23 16t9.5 28.5t2 47v191q0 16 -1 27t-6.5 20.5t-18 19.5t-35.5 24v10l127 44l11 -4v-332q0 -31 2 -49t9.5 -28t23 -15t43.5 -9v-15h-233z" />
    <glyph glyph-name="oslash" unicode="&#xf8;" 
d="M185 60q20 -22 43.5 -35t53.5 -13q39 0 67.5 18.5t47 47t27.5 64t9 69.5q0 77 -36 145zM379 380q-18 23 -44.5 36.5t-55.5 13.5q-24 0 -51 -11.5t-49.5 -35.5t-37 -62.5t-14.5 -92.5q0 -44 9 -76t32 -70zM484 479l-49 -71q43 -32 67 -80.5t24 -102.5t-20 -97.5t-54.5 -74
t-80 -47t-97.5 -16.5q-63 0 -118 27l-59 -81l-24 17l57 79q-47 32 -71.5 76.5t-24.5 102.5q0 65 24 110.5t60.5 74.5t80.5 42.5t84 13.5q32 0 65 -7.5t61 -21.5l52 72z" />
    <glyph glyph-name="oe" unicode="&#x153;" horiz-adv-x="840" 
d="M699 332q-2 17 -8.5 34.5t-18 31.5t-27.5 22.5t-37 8.5t-38.5 -9t-30.5 -24t-21.5 -34t-11.5 -38zM421 213q0 34 -7.5 72.5t-25 70.5t-46 53t-70.5 21t-70 -18.5t-44.5 -48t-23.5 -65.5t-7 -71q0 -40 9.5 -78.5t28.5 -69t48 -49t68 -18.5q40 0 66.5 19t43 48.5t23.5 65
t7 68.5zM501 305l-2 -50q-1 -41 9 -77t31 -63.5t53.5 -43.5t75.5 -16q42 0 70.5 16t55.5 45l12 -13q-32 -48 -79 -80.5t-107 -32.5q-55 0 -89.5 20.5t-66.5 63.5q-36 -42 -87.5 -63t-105.5 -21q-48 0 -91.5 16.5t-75.5 46t-51 71t-19 91.5q0 52 19.5 95.5t52.5 75t77.5 49
t95.5 17.5q56 0 103 -20t82 -65q31 38 74.5 61.5t93.5 23.5q71 0 114 -38t48 -109h-293z" />
    <glyph glyph-name="germandbls" unicode="&#xdf;" horiz-adv-x="540" 
d="M94 447q-2 36 14.5 83t48 89t75.5 70.5t98 28.5q27 0 50.5 -10.5t40.5 -28.5t26.5 -42.5t9.5 -52.5q0 -10 -2 -20t-4 -21q-16 -12 -35 -26.5t-35 -31.5t-26.5 -36.5t-10.5 -42.5q0 -25 12.5 -45t31 -38t40.5 -35.5t40.5 -38t31 -45.5t12.5 -57q0 -37 -19 -66t-46.5 -49.5
t-58 -31t-52.5 -10.5q-16 0 -27.5 7.5t-11.5 24.5q0 12 8 22.5t21 10.5q8 0 15.5 -5.5t15.5 -11.5t16 -11.5t16 -5.5q3 0 12 4t18 13t16 24.5t7 38.5q0 33 -12.5 58.5t-31.5 45.5t-41 37.5t-41 34.5t-31.5 36t-12.5 44q0 36 17 58t37 41.5t37 41t17 56.5q0 24 -6.5 46.5
t-20 40t-33.5 27.5t-47 10q-25 0 -42.5 -17t-29 -44t-17.5 -60.5t-9 -65.5t-3.5 -59.5t-0.5 -43.5v-272q0 -31 2 -49t10.5 -28t26.5 -15t50 -9v-15h-239v15q26 4 40.5 9.5t21.5 16t9 28.5t2 47v272h-81v10z" />
    <glyph glyph-name="divide" unicode="&#xf7;" 
d="M280 343q-23 0 -38.5 15.5t-15.5 38.5t15.5 39t38.5 16t39 -16t16 -39t-16 -38.5t-39 -15.5zM280 -10q-23 0 -38.5 15.5t-15.5 38.5t15.5 39t38.5 16t39 -16t16 -39t-16 -38.5t-39 -15.5zM501 248v-54h-442v54h442z" />
    <glyph glyph-name="registered" unicode="&#xae;" horiz-adv-x="760" 
d="M345 353q25 0 48.5 2.5t41.5 11.5t29 27t11 50q0 42 -22.5 65t-73.5 23q-16 0 -25.5 -0.5t-15 -5t-7 -13.5t-1.5 -25v-135h15zM430 338q26 -2 46 -27.5t42 -74.5q10 -23 18 -38t15.5 -24t16.5 -13t22 -4v-20h-27q-30 0 -46 2.5t-26 11.5t-18 27t-22 50q-11 23 -19.5 42.5
t-20.5 33.5t-31 20.5t-50 2.5v-142q0 -18 14.5 -23.5t33.5 -3.5v-21h-164v21q19 -2 33.5 3.5t14.5 23.5v320q0 18 -14.5 23.5t-33.5 3.5v21h166q37 0 67 -4.5t51 -16.5t32.5 -32t11.5 -50q0 -23 -9.5 -42.5t-25 -34t-36 -23.5t-41.5 -10v-2zM386 28q63 0 117 25t93.5 67.5
t61.5 99.5t22 121q0 66 -22.5 122.5t-62.5 98.5t-95 66t-120 24q-63 0 -117 -24.5t-93.5 -67t-62 -99t-22.5 -120.5q0 -66 23 -123t63 -99.5t95 -66.5t120 -24zM379 -12q-71 0 -134 28t-109.5 76t-73.5 112t-27 135q0 72 27 136t73.5 112.5t109.5 76.5t135 28
q73 0 136.5 -27.5t111 -75t75 -112t27.5 -138.5t-28 -138t-75.5 -111t-111.5 -74.5t-136 -27.5z" />
    <glyph glyph-name="ccedilla" unicode="&#xe7;" horiz-adv-x="440" 
d="M416 73q-31 -35 -71.5 -57t-87.5 -25q-6 -6 -10.5 -12t-4.5 -12q0 -8 9 -18t20 -21.5t20 -25t9 -29.5q0 -14 -9 -30t-24 -29.5t-33.5 -22.5t-37.5 -9q-18 0 -37 10t-19 31q0 10 5.5 17.5t16.5 7.5q10 0 19 -5t18 -10.5t17.5 -10.5t19.5 -5q9 0 15.5 5.5t6.5 15.5
q0 12 -11 25t-24 27.5t-24 28.5t-11 28t13 25.5t26 19.5q-44 2 -79.5 20.5t-60.5 48t-39 68t-14 80.5q0 52 21 97t56.5 77t82 50.5t97.5 18.5q12 0 30.5 -1.5t36 -6.5t30 -15t12.5 -27t-15 -31.5t-32 -14.5q-13 0 -26.5 10t-28.5 22.5t-31 22.5t-35 10q-30 0 -52 -15.5
t-37 -39.5t-22 -52.5t-7 -53.5q0 -48 15.5 -87t41 -66.5t59.5 -42.5t71 -15q31 0 54.5 10.5t48.5 28.5z" />
    <glyph glyph-name="plusminus" unicode="&#xb1;" 
d="M59 54h442v-54h-442v54zM253 294v148h54v-148h194v-54h-194v-148h-54v148h-194v54h194z" />
    <glyph glyph-name="Ccedilla" unicode="&#xc7;" horiz-adv-x="740" 
d="M676 474h-15q-7 42 -23 78t-41.5 61.5t-60.5 40t-80 14.5q-69 0 -122 -26t-89.5 -70.5t-55.5 -103t-19 -122.5q0 -74 26 -135.5t68 -105.5t95 -68.5t107 -24.5q49 0 84.5 16.5t61.5 45t45.5 65t36.5 77.5l14 -6q-9 -46 -23 -90.5t-32 -88.5q-48 -23 -99 -33t-105 -10
q-23 0 -42 3q-6 -6 -10.5 -12t-4.5 -12q0 -8 9 -18t20 -21.5t20 -25t9 -29.5q0 -14 -9 -30t-24 -29.5t-33.5 -22.5t-37.5 -9q-18 0 -37 10t-19 31q0 10 5.5 17.5t16.5 7.5q10 0 19 -5t18 -10.5t17.5 -10.5t19.5 -5q9 0 15.5 5.5t6.5 15.5q0 12 -11 25t-24 27.5t-24 28.5
t-11 28t15 27t28 21q-68 8 -127.5 34t-104 68.5t-70 102t-25.5 134.5q0 67 26 131t76.5 114.5t126 81.5t174.5 31q57 0 113 -12.5t106 -41.5v-164z" />
    <glyph glyph-name="copyright" unicode="&#xa9;" horiz-adv-x="760" 
d="M534 416h-30q-3 49 -31 79t-78 30q-37 0 -63.5 -15t-44 -39.5t-25.5 -55.5t-8 -64q0 -34 9.5 -67.5t28 -60t46.5 -43t65 -16.5q21 0 39 6.5t32.5 17t25.5 23.5t19 26l26 -8q-10 -25 -28 -44t-41.5 -32t-49.5 -19.5t-51 -6.5q-46 0 -83 16t-63.5 44.5t-40.5 67.5t-14 84
q0 49 15.5 89t43 68.5t67 44.5t87.5 16q37 0 74.5 -8.5t72.5 -20.5v-112zM386 28q63 0 117 25t93.5 67.5t61.5 99.5t22 121q0 66 -22.5 122.5t-62.5 98.5t-95 66t-120 24q-63 0 -117 -24.5t-93.5 -67t-62 -99t-22.5 -120.5q0 -66 23 -123t63 -99.5t95 -66.5t120 -24z
M379 -12q-71 0 -134 28t-109.5 76t-73.5 112t-27 135q0 72 27 136t73.5 112.5t109.5 76.5t135 28q73 0 136.5 -27.5t111 -75t75 -112t27.5 -138.5t-28 -138t-75.5 -111t-111.5 -74.5t-136 -27.5z" />
    <glyph glyph-name="logicalnot" unicode="&#xac;" 
d="M501 85h-54v175h-389v54h443v-229z" />
    <glyph glyph-name="trademark" unicode="&#x2122;" horiz-adv-x="840" 
d="M43 680h292v-83h-22q0 20 -4 32t-12 18t-21 8t-32 2h-27v-274q0 -18 14.5 -22t34.5 -5v-19h-154v19q20 1 34.5 5t14.5 22v274h-20q-19 0 -33.5 -1t-24 -7t-14 -18t-4.5 -34h-22v83zM773 397q0 -13 1.5 -21t6 -12.5t13 -6t22.5 -1.5v-19h-142v19q28 1 35.5 8t7.5 33v245
h-7l-120 -305h-8l-122 305h-7v-259q0 -18 14.5 -22t34.5 -5v-19h-122v19q20 1 34.5 5t14.5 22v265q0 11 -10.5 12t-23.5 1v19h100l106 -253l101 253h109v-19q-19 0 -28.5 -2.5t-9.5 -13.5v-248z" />
    <glyph glyph-name="degree" unicode="&#xb0;" horiz-adv-x="400" 
d="M310 542q0 22 -9 42t-24 35t-35 24t-43 9t-42.5 -9t-34.5 -24t-23.5 -35t-8.5 -42q0 -23 8.5 -43t23.5 -35t35 -23.5t43 -8.5q22 0 42 8.5t35 23.5t24 35t9 43zM350 542q0 -31 -12 -58.5t-32.5 -47.5t-47.5 -32t-58 -12t-58.5 12t-47.5 32t-32 47.5t-12 58.5t11.5 58
t32 47.5t48 32.5t58.5 12t58 -12t47.5 -32.5t32.5 -47.5t12 -58z" />
    <glyph glyph-name="mu" unicode="&#xb5;" 
d="M380 299q0 33 -1.5 55t-10.5 35.5t-27.5 19t-52.5 5.5v15l175 13l-6 -331q0 -14 -1 -27t2 -23.5t12 -17t27 -6.5l46 4l4 -15l-170 -41l3 78q-41 -29 -84 -51t-85 -22q-36 0 -59 15.5t-32 38.5h-2v-116q0 -9 4 -22.5t9 -28.5t9 -28.5t4 -22.5q0 -25 -10.5 -46.5
t-30.5 -21.5t-30.5 21.5t-10.5 46.5q0 9 4 22.5t9 28.5t9 28.5t4 22.5v382v46t-6 33t-21.5 19t-46.5 6v15l151 13v-247v-42q0 -26 8.5 -51t30.5 -43.5t66 -18.5q31 0 59 12t51 32v215z" />
    <glyph glyph-name="mu" unicode="&#x3bc;" 
d="M380 299q0 33 -1.5 55t-10.5 35.5t-27.5 19t-52.5 5.5v15l175 13l-6 -331q0 -14 -1 -27t2 -23.5t12 -17t27 -6.5l46 4l4 -15l-170 -41l3 78q-41 -29 -84 -51t-85 -22q-36 0 -59 15.5t-32 38.5h-2v-116q0 -9 4 -22.5t9 -28.5t9 -28.5t4 -22.5q0 -25 -10.5 -46.5
t-30.5 -21.5t-30.5 21.5t-10.5 46.5q0 9 4 22.5t9 28.5t9 28.5t4 22.5v382v46t-6 33t-21.5 19t-46.5 6v15l151 13v-247v-42q0 -26 8.5 -51t30.5 -43.5t66 -18.5q31 0 59 12t51 32v215z" />
    <glyph glyph-name="numbersign" unicode="#" 
d="M239 416l-22 -137h134l21 137h-133zM509 222h-108l-31 -222h-58l31 222h-134l-33 -222h-57l33 222h-108v57h115l22 137h-109v57h117l31 207h58l-31 -207h133l30 207h57l-30 -207h98v-57h-106l-20 -137h100v-57z" />
    <glyph glyph-name="Aacute" unicode="&#xc1;" horiz-adv-x="680" 
d="M462 885l-182 -170l-14 12l149 207zM307 591l-94 -260h198zM196 285q-6 -19 -16.5 -46t-20.5 -55.5t-17 -55.5t-7 -45q0 -23 11.5 -35.5t28.5 -19t37 -8.5t37 -5v-15h-274v15q33 9 53 18t33 22.5t22 33t21 48.5l113 295l60 163q7 20 13 37.5t-2 31.5q42 17 73 54
l220 -586q10 -27 19.5 -47t22.5 -33.5t32.5 -22t49.5 -14.5v-15h-294v15q13 3 26.5 7t25 11t18.5 18t7 28q0 16 -6.5 40t-16 52.5t-20.5 58t-21 55.5h-228z" />
    <glyph glyph-name="Acircumflex" unicode="&#xc2;" horiz-adv-x="680" 
d="M224 722l112 234h9l111 -234l-14 -7l-103 146l-99 -146zM307 591l-94 -260h198zM196 285q-6 -19 -16.5 -46t-20.5 -55.5t-17 -55.5t-7 -45q0 -23 11.5 -35.5t28.5 -19t37 -8.5t37 -5v-15h-274v15q33 9 53 18t33 22.5t22 33t21 48.5l113 295l60 163q7 20 13 37.5t-2 31.5
q42 17 73 54l220 -586q10 -27 19.5 -47t22.5 -33.5t32.5 -22t49.5 -14.5v-15h-294v15q13 3 26.5 7t25 11t18.5 18t7 28q0 16 -6.5 40t-16 52.5t-20.5 58t-21 55.5h-228z" />
    <glyph glyph-name="Adieresis" unicode="&#xc4;" horiz-adv-x="680" 
d="M483 793q0 -20 -14 -34t-34 -14t-33.5 14t-13.5 34t13.5 33.5t33.5 13.5t34 -13.5t14 -33.5zM292 793q0 -20 -13.5 -34t-33.5 -14t-34 14t-14 34t14 33.5t34 13.5t33.5 -13.5t13.5 -33.5zM307 591l-94 -260h198zM196 285q-6 -19 -16.5 -46t-20.5 -55.5t-17 -55.5t-7 -45
q0 -23 11.5 -35.5t28.5 -19t37 -8.5t37 -5v-15h-274v15q33 9 53 18t33 22.5t22 33t21 48.5l113 295l60 163q7 20 13 37.5t-2 31.5q42 17 73 54l220 -586q10 -27 19.5 -47t22.5 -33.5t32.5 -22t49.5 -14.5v-15h-294v15q13 3 26.5 7t25 11t18.5 18t7 28q0 16 -6.5 40t-16 52.5
t-20.5 58t-21 55.5h-228z" />
    <glyph glyph-name="Agrave" unicode="&#xc0;" horiz-adv-x="680" 
d="M414 727l-14 -12l-182 170l47 49zM307 591l-94 -260h198zM196 285q-6 -19 -16.5 -46t-20.5 -55.5t-17 -55.5t-7 -45q0 -23 11.5 -35.5t28.5 -19t37 -8.5t37 -5v-15h-274v15q33 9 53 18t33 22.5t22 33t21 48.5l113 295l60 163q7 20 13 37.5t-2 31.5q42 17 73 54l220 -586
q10 -27 19.5 -47t22.5 -33.5t32.5 -22t49.5 -14.5v-15h-294v15q13 3 26.5 7t25 11t18.5 18t7 28q0 16 -6.5 40t-16 52.5t-20.5 58t-21 55.5h-228z" />
    <glyph glyph-name="Aring" unicode="&#xc5;" horiz-adv-x="680" 
d="M396 820q0 23 -15.5 43t-41.5 20q-25 0 -40.5 -20t-15.5 -43q0 -24 15.5 -44t40.5 -20q26 0 41.5 20t15.5 44zM428 820q0 -37 -26 -63t-63 -26q-18 0 -34 7t-28 19t-19 28.5t-7 34.5t7 34t19 28t28 19t34 7q37 0 63 -25.5t26 -62.5zM307 591l-94 -260h198zM196 285
q-6 -19 -16.5 -46t-20.5 -55.5t-17 -55.5t-7 -45q0 -23 11.5 -35.5t28.5 -19t37 -8.5t37 -5v-15h-274v15q33 9 53 18t33 22.5t22 33t21 48.5l113 295l60 163q7 20 13 37.5t-2 31.5q42 17 73 54l220 -586q10 -27 19.5 -47t22.5 -33.5t32.5 -22t49.5 -14.5v-15h-294v15
q13 3 26.5 7t25 11t18.5 18t7 28q0 16 -6.5 40t-16 52.5t-20.5 58t-21 55.5h-228z" />
    <glyph glyph-name="Atilde" unicode="&#xc3;" horiz-adv-x="680" 
d="M227 806q-17 0 -33.5 -7.5t-30.5 -15.5l-9 14q10 7 24.5 16.5t31 18t32 14.5t27.5 6q16 0 37 -8.5t42.5 -18.5t42 -18.5t37.5 -8.5q23 0 46.5 15t39.5 31l11 -11q-12 -13 -28 -27.5t-34 -26.5t-37 -20t-37 -8t-39 8.5t-43 19t-42.5 19t-37.5 8.5zM307 591l-94 -260h198z
M196 285q-6 -19 -16.5 -46t-20.5 -55.5t-17 -55.5t-7 -45q0 -23 11.5 -35.5t28.5 -19t37 -8.5t37 -5v-15h-274v15q33 9 53 18t33 22.5t22 33t21 48.5l113 295l60 163q7 20 13 37.5t-2 31.5q42 17 73 54l220 -586q10 -27 19.5 -47t22.5 -33.5t32.5 -22t49.5 -14.5v-15h-294
v15q13 3 26.5 7t25 11t18.5 18t7 28q0 16 -6.5 40t-16 52.5t-20.5 58t-21 55.5h-228z" />
    <glyph glyph-name="Eacute" unicode="&#xc9;" horiz-adv-x="660" 
d="M452 885l-182 -170l-14 12l149 207zM31 15q45 6 69.5 15.5t36.5 26.5t14.5 42.5t3.5 64.5v352q-1 39 -3.5 64.5t-14.5 42.5t-36.5 26.5t-69.5 15.5v15h537l-12 -154h-15q-3 48 -20.5 74.5t-45 39t-62.5 14.5t-73 2h-97v-285h104q28 0 52.5 2.5t43 11.5t31 27.5t16.5 50.5
h15v-223h-15q-5 33 -17.5 51t-31 26.5t-42.5 10t-52 1.5h-104v-164q0 -22 0.5 -47t13 -46t43.5 -34.5t93 -13.5q47 0 83 9.5t61.5 30.5t42.5 54t26 80h15q-1 -57 -10 -105t-24 -93h-556v15z" />
    <glyph glyph-name="Ecircumflex" unicode="&#xca;" horiz-adv-x="660" 
d="M214 722l112 234h9l111 -234l-14 -7l-103 146l-99 -146zM31 15q45 6 69.5 15.5t36.5 26.5t14.5 42.5t3.5 64.5v352q-1 39 -3.5 64.5t-14.5 42.5t-36.5 26.5t-69.5 15.5v15h537l-12 -154h-15q-3 48 -20.5 74.5t-45 39t-62.5 14.5t-73 2h-97v-285h104q28 0 52.5 2.5
t43 11.5t31 27.5t16.5 50.5h15v-223h-15q-5 33 -17.5 51t-31 26.5t-42.5 10t-52 1.5h-104v-164q0 -22 0.5 -47t13 -46t43.5 -34.5t93 -13.5q47 0 83 9.5t61.5 30.5t42.5 54t26 80h15q-1 -57 -10 -105t-24 -93h-556v15z" />
    <glyph glyph-name="Edieresis" unicode="&#xcb;" horiz-adv-x="660" 
d="M473 793q0 -20 -14 -34t-34 -14t-33.5 14t-13.5 34t13.5 33.5t33.5 13.5t34 -13.5t14 -33.5zM282 793q0 -20 -13.5 -34t-33.5 -14t-34 14t-14 34t14 33.5t34 13.5t33.5 -13.5t13.5 -33.5zM31 15q45 6 69.5 15.5t36.5 26.5t14.5 42.5t3.5 64.5v352q-1 39 -3.5 64.5
t-14.5 42.5t-36.5 26.5t-69.5 15.5v15h537l-12 -154h-15q-3 48 -20.5 74.5t-45 39t-62.5 14.5t-73 2h-97v-285h104q28 0 52.5 2.5t43 11.5t31 27.5t16.5 50.5h15v-223h-15q-5 33 -17.5 51t-31 26.5t-42.5 10t-52 1.5h-104v-164q0 -22 0.5 -47t13 -46t43.5 -34.5t93 -13.5
q47 0 83 9.5t61.5 30.5t42.5 54t26 80h15q-1 -57 -10 -105t-24 -93h-556v15z" />
    <glyph glyph-name="Egrave" unicode="&#xc8;" horiz-adv-x="660" 
d="M404 727l-14 -12l-182 170l47 49zM31 15q45 6 69.5 15.5t36.5 26.5t14.5 42.5t3.5 64.5v352q-1 39 -3.5 64.5t-14.5 42.5t-36.5 26.5t-69.5 15.5v15h537l-12 -154h-15q-3 48 -20.5 74.5t-45 39t-62.5 14.5t-73 2h-97v-285h104q28 0 52.5 2.5t43 11.5t31 27.5t16.5 50.5
h15v-223h-15q-5 33 -17.5 51t-31 26.5t-42.5 10t-52 1.5h-104v-164q0 -22 0.5 -47t13 -46t43.5 -34.5t93 -13.5q47 0 83 9.5t61.5 30.5t42.5 54t26 80h15q-1 -57 -10 -105t-24 -93h-556v15z" />
    <glyph glyph-name="Iacute" unicode="&#xcd;" horiz-adv-x="400" 
d="M322 885l-182 -170l-14 12l149 207zM244 164q1 -39 3.5 -64.5t14.5 -42.5t36.5 -26.5t69.5 -15.5v-15h-336v15q45 6 69.5 15.5t36.5 26.5t14.5 42.5t3.5 64.5v352q-1 39 -3.5 64.5t-14.5 42.5t-36.5 26.5t-69.5 15.5v15h336v-15q-45 -6 -69.5 -15.5t-36.5 -26.5
t-14.5 -42.5t-3.5 -64.5v-352z" />
    <glyph glyph-name="Icircumflex" unicode="&#xce;" horiz-adv-x="400" 
d="M84 722l112 234h9l111 -234l-14 -7l-103 146l-99 -146zM244 164q1 -39 3.5 -64.5t14.5 -42.5t36.5 -26.5t69.5 -15.5v-15h-336v15q45 6 69.5 15.5t36.5 26.5t14.5 42.5t3.5 64.5v352q-1 39 -3.5 64.5t-14.5 42.5t-36.5 26.5t-69.5 15.5v15h336v-15q-45 -6 -69.5 -15.5
t-36.5 -26.5t-14.5 -42.5t-3.5 -64.5v-352z" />
    <glyph glyph-name="Idieresis" unicode="&#xcf;" horiz-adv-x="400" 
d="M343 793q0 -20 -14 -34t-34 -14t-33.5 14t-13.5 34t13.5 33.5t33.5 13.5t34 -13.5t14 -33.5zM152 793q0 -20 -13.5 -34t-33.5 -14t-34 14t-14 34t14 33.5t34 13.5t33.5 -13.5t13.5 -33.5zM244 164q1 -39 3.5 -64.5t14.5 -42.5t36.5 -26.5t69.5 -15.5v-15h-336v15
q45 6 69.5 15.5t36.5 26.5t14.5 42.5t3.5 64.5v352q-1 39 -3.5 64.5t-14.5 42.5t-36.5 26.5t-69.5 15.5v15h336v-15q-45 -6 -69.5 -15.5t-36.5 -26.5t-14.5 -42.5t-3.5 -64.5v-352z" />
    <glyph glyph-name="Igrave" unicode="&#xcc;" horiz-adv-x="400" 
d="M274 727l-14 -12l-182 170l47 49zM244 164q1 -39 3.5 -64.5t14.5 -42.5t36.5 -26.5t69.5 -15.5v-15h-336v15q45 6 69.5 15.5t36.5 26.5t14.5 42.5t3.5 64.5v352q-1 39 -3.5 64.5t-14.5 42.5t-36.5 26.5t-69.5 15.5v15h336v-15q-45 -6 -69.5 -15.5t-36.5 -26.5
t-14.5 -42.5t-3.5 -64.5v-352z" />
    <glyph glyph-name="Ntilde" unicode="&#xd1;" horiz-adv-x="820" 
d="M297 796q-17 0 -33.5 -7.5t-30.5 -15.5l-9 14q10 7 24.5 16.5t31 18t32 14.5t27.5 6q16 0 37 -8.5t42.5 -18.5t42 -18.5t37.5 -8.5q23 0 46.5 15t39.5 31l11 -11q-12 -13 -28 -27.5t-34 -26.5t-37 -20t-37 -8t-39 8.5t-43 19t-42.5 19t-37.5 8.5zM675 157l-5 365
q0 36 -6 60t-22 40t-43 25.5t-69 17.5v15h273v-15q-26 -3 -42 -12t-26 -23t-14.5 -33.5t-7.5 -43.5q-5 -41 -7 -104.5t-2 -139.5t1.5 -159.5t3.5 -165.5l-13 -3q-120 142 -250 275.5t-257 270.5v-184q0 -93 1.5 -152t14 -94.5t41 -53t82.5 -28.5v-15h-299v15q51 5 77.5 26
t38 60.5t13 100.5t1.5 146v150q0 37 -4.5 64t-19.5 46.5t-43 32.5t-76 24v15h165z" />
    <glyph glyph-name="Oacute" unicode="&#xd3;" horiz-adv-x="840" 
d="M542 885l-182 -170l-14 12l149 207zM411 668q-65 0 -110.5 -28.5t-74.5 -72.5t-42.5 -97.5t-13.5 -104.5q0 -58 15.5 -120.5t48 -114t81.5 -85t117 -33.5q62 0 107 28.5t74 73.5t43 100t14 109q-1 66 -20 128.5t-53 110.5t-81.5 77t-104.5 29zM419 692q96 0 165.5 -30
t114 -79.5t66 -112.5t21.5 -130q0 -81 -27.5 -146t-76.5 -110.5t-116 -70.5t-146 -25t-146 25t-116 70.5t-76.5 111t-27.5 146.5q0 80 27.5 145t76.5 110.5t116 70.5t145 25z" />
    <glyph glyph-name="Ocircumflex" unicode="&#xd4;" horiz-adv-x="840" 
d="M304 722l112 234h9l111 -234l-14 -7l-103 146l-99 -146zM411 668q-65 0 -110.5 -28.5t-74.5 -72.5t-42.5 -97.5t-13.5 -104.5q0 -58 15.5 -120.5t48 -114t81.5 -85t117 -33.5q62 0 107 28.5t74 73.5t43 100t14 109q-1 66 -20 128.5t-53 110.5t-81.5 77t-104.5 29z
M419 692q96 0 165.5 -30t114 -79.5t66 -112.5t21.5 -130q0 -81 -27.5 -146t-76.5 -110.5t-116 -70.5t-146 -25t-146 25t-116 70.5t-76.5 111t-27.5 146.5q0 80 27.5 145t76.5 110.5t116 70.5t145 25z" />
    <glyph glyph-name="Odieresis" unicode="&#xd6;" horiz-adv-x="840" 
d="M563 793q0 -20 -14 -34t-34 -14t-33.5 14t-13.5 34t13.5 33.5t33.5 13.5t34 -13.5t14 -33.5zM372 793q0 -20 -13.5 -34t-33.5 -14t-34 14t-14 34t14 33.5t34 13.5t33.5 -13.5t13.5 -33.5zM411 668q-65 0 -110.5 -28.5t-74.5 -72.5t-42.5 -97.5t-13.5 -104.5
q0 -58 15.5 -120.5t48 -114t81.5 -85t117 -33.5q62 0 107 28.5t74 73.5t43 100t14 109q-1 66 -20 128.5t-53 110.5t-81.5 77t-104.5 29zM419 692q96 0 165.5 -30t114 -79.5t66 -112.5t21.5 -130q0 -81 -27.5 -146t-76.5 -110.5t-116 -70.5t-146 -25t-146 25t-116 70.5
t-76.5 111t-27.5 146.5q0 80 27.5 145t76.5 110.5t116 70.5t145 25z" />
    <glyph glyph-name="Ograve" unicode="&#xd2;" horiz-adv-x="840" 
d="M494 745l-14 -12l-182 170l47 49zM411 668q-65 0 -110.5 -28.5t-74.5 -72.5t-42.5 -97.5t-13.5 -104.5q0 -58 15.5 -120.5t48 -114t81.5 -85t117 -33.5q62 0 107 28.5t74 73.5t43 100t14 109q-1 66 -20 128.5t-53 110.5t-81.5 77t-104.5 29zM419 692q96 0 165.5 -30
t114 -79.5t66 -112.5t21.5 -130q0 -81 -27.5 -146t-76.5 -110.5t-116 -70.5t-146 -25t-146 25t-116 70.5t-76.5 111t-27.5 146.5q0 80 27.5 145t76.5 110.5t116 70.5t145 25z" />
    <glyph glyph-name="Otilde" unicode="&#xd5;" horiz-adv-x="840" 
d="M307 796q-17 0 -33.5 -7.5t-30.5 -15.5l-9 14q10 7 24.5 16.5t31 18t32 14.5t27.5 6q16 0 37 -8.5t42.5 -18.5t42 -18.5t37.5 -8.5q23 0 46.5 15t39.5 31l11 -11q-12 -13 -28 -27.5t-34 -26.5t-37 -20t-37 -8t-39 8.5t-43 19t-42.5 19t-37.5 8.5zM411 668
q-65 0 -110.5 -28.5t-74.5 -72.5t-42.5 -97.5t-13.5 -104.5q0 -58 15.5 -120.5t48 -114t81.5 -85t117 -33.5q62 0 107 28.5t74 73.5t43 100t14 109q-1 66 -20 128.5t-53 110.5t-81.5 77t-104.5 29zM419 692q96 0 165.5 -30t114 -79.5t66 -112.5t21.5 -130q0 -81 -27.5 -146
t-76.5 -110.5t-116 -70.5t-146 -25t-146 25t-116 70.5t-76.5 111t-27.5 146.5q0 80 27.5 145t76.5 110.5t116 70.5t145 25z" />
    <glyph glyph-name="Uacute" unicode="&#xda;" horiz-adv-x="840" 
d="M562 885l-182 -170l-14 12l149 207zM819 680v-15q-34 -4 -53.5 -16.5t-29.5 -36.5t-13.5 -60t-4.5 -85l-6 -219q-1 -48 -13.5 -95t-44 -83.5t-85.5 -59t-137 -22.5q-77 0 -128 17t-82 44t-45.5 61t-19.5 67.5t-4 64t1 50.5v224q-1 39 -3.5 64.5t-14.5 42.5t-36.5 26.5
t-69.5 15.5v15h345v-15q-49 -7 -76 -16t-39.5 -24.5t-15 -41.5t-2.5 -67v-205q0 -5 -1 -27t3 -53t16.5 -65.5t39 -64t71 -48.5t113.5 -19q54 0 89.5 16t57 42t32 60t14 70.5t3 72.5t-0.5 67v105q0 48 -4 83t-19 59t-45 37.5t-82 18.5v15h290z" />
    <glyph glyph-name="Ucircumflex" unicode="&#xdb;" horiz-adv-x="840" 
d="M324 722l112 234h9l111 -234l-14 -7l-103 146l-99 -146zM819 680v-15q-34 -4 -53.5 -16.5t-29.5 -36.5t-13.5 -60t-4.5 -85l-6 -219q-1 -48 -13.5 -95t-44 -83.5t-85.5 -59t-137 -22.5q-77 0 -128 17t-82 44t-45.5 61t-19.5 67.5t-4 64t1 50.5v224q-1 39 -3.5 64.5
t-14.5 42.5t-36.5 26.5t-69.5 15.5v15h345v-15q-49 -7 -76 -16t-39.5 -24.5t-15 -41.5t-2.5 -67v-205q0 -5 -1 -27t3 -53t16.5 -65.5t39 -64t71 -48.5t113.5 -19q54 0 89.5 16t57 42t32 60t14 70.5t3 72.5t-0.5 67v105q0 48 -4 83t-19 59t-45 37.5t-82 18.5v15h290z" />
    <glyph glyph-name="Udieresis" unicode="&#xdc;" horiz-adv-x="840" 
d="M583 793q0 -20 -14 -34t-34 -14t-33.5 14t-13.5 34t13.5 33.5t33.5 13.5t34 -13.5t14 -33.5zM392 793q0 -20 -13.5 -34t-33.5 -14t-34 14t-14 34t14 33.5t34 13.5t33.5 -13.5t13.5 -33.5zM819 680v-15q-34 -4 -53.5 -16.5t-29.5 -36.5t-13.5 -60t-4.5 -85l-6 -219
q-1 -48 -13.5 -95t-44 -83.5t-85.5 -59t-137 -22.5q-77 0 -128 17t-82 44t-45.5 61t-19.5 67.5t-4 64t1 50.5v224q-1 39 -3.5 64.5t-14.5 42.5t-36.5 26.5t-69.5 15.5v15h345v-15q-49 -7 -76 -16t-39.5 -24.5t-15 -41.5t-2.5 -67v-205q0 -5 -1 -27t3 -53t16.5 -65.5t39 -64
t71 -48.5t113.5 -19q54 0 89.5 16t57 42t32 60t14 70.5t3 72.5t-0.5 67v105q0 48 -4 83t-19 59t-45 37.5t-82 18.5v15h290z" />
    <glyph glyph-name="Ugrave" unicode="&#xd9;" horiz-adv-x="840" 
d="M474 727l-14 -12l-182 170l47 49zM819 680v-15q-34 -4 -53.5 -16.5t-29.5 -36.5t-13.5 -60t-4.5 -85l-6 -219q-1 -48 -13.5 -95t-44 -83.5t-85.5 -59t-137 -22.5q-77 0 -128 17t-82 44t-45.5 61t-19.5 67.5t-4 64t1 50.5v224q-1 39 -3.5 64.5t-14.5 42.5t-36.5 26.5
t-69.5 15.5v15h345v-15q-49 -7 -76 -16t-39.5 -24.5t-15 -41.5t-2.5 -67v-205q0 -5 -1 -27t3 -53t16.5 -65.5t39 -64t71 -48.5t113.5 -19q54 0 89.5 16t57 42t32 60t14 70.5t3 72.5t-0.5 67v105q0 48 -4 83t-19 59t-45 37.5t-82 18.5v15h290z" />
    <glyph glyph-name="Ydieresis" unicode="&#x178;" horiz-adv-x="600" 
d="M463 793q0 -20 -14 -34t-34 -14t-33.5 14t-13.5 34t13.5 33.5t33.5 13.5t34 -13.5t14 -33.5zM272 793q0 -20 -13.5 -34t-33.5 -14t-34 14t-14 34t14 33.5t34 13.5t33.5 -13.5t13.5 -33.5zM627 680v-15q-33 -3 -58 -13t-45 -26.5t-36.5 -38.5t-32.5 -49l-118 -234v-113
q1 -43 3.5 -73t15 -50.5t39 -33t74.5 -19.5v-15h-352v15q48 7 74.5 19.5t39 33t15 50.5t3.5 73v80l-104 227q-14 31 -27.5 59.5t-31.5 51t-43.5 37t-63.5 19.5v15h276v-15q-31 -4 -45.5 -12.5t-17 -22.5t4.5 -33.5t19 -45.5l100 -216l87 165q23 43 33 73t6.5 49t-21.5 29
t-51 14v15h257z" />
    <glyph glyph-name="aacute" unicode="&#xe1;" horiz-adv-x="440" 
d="M342 667l-182 -170l-14 12l149 207zM133 159q-3 -10 -5 -19.5t-2 -20.5q0 -32 17.5 -55.5t52.5 -23.5q20 0 39 11.5t33 25.5v151zM268 248q6 82 -16.5 118t-82.5 36q-26 0 -39 -6t-18 -17.5t-5 -27.5v-37l-50 -3q-6 0 -14.5 1t-8.5 9q0 10 18.5 32t46.5 44t62 38.5
t64 16.5q34 0 57.5 -12t37 -33t19.5 -48t6 -57v-142q0 -33 0.5 -54.5t8 -35.5t25.5 -22.5t53 -15.5v-15q-29 -8 -53.5 -15t-47.5 -7q-32 0 -45.5 17t-17.5 46q-24 -27 -56.5 -47.5t-70.5 -20.5q-24 0 -42.5 9.5t-31.5 25t-19.5 36t-6.5 43.5q0 21 6 44z" />
    <glyph glyph-name="acircumflex" unicode="&#xe2;" horiz-adv-x="440" 
d="M104 504l112 234h9l111 -234l-14 -7l-103 146l-99 -146zM133 159q-3 -10 -5 -19.5t-2 -20.5q0 -32 17.5 -55.5t52.5 -23.5q20 0 39 11.5t33 25.5v151zM268 248q6 82 -16.5 118t-82.5 36q-26 0 -39 -6t-18 -17.5t-5 -27.5v-37l-50 -3q-6 0 -14.5 1t-8.5 9q0 10 18.5 32
t46.5 44t62 38.5t64 16.5q34 0 57.5 -12t37 -33t19.5 -48t6 -57v-142q0 -33 0.5 -54.5t8 -35.5t25.5 -22.5t53 -15.5v-15q-29 -8 -53.5 -15t-47.5 -7q-32 0 -45.5 17t-17.5 46q-24 -27 -56.5 -47.5t-70.5 -20.5q-24 0 -42.5 9.5t-31.5 25t-19.5 36t-6.5 43.5q0 21 6 44z" />
    <glyph glyph-name="adieresis" unicode="&#xe4;" horiz-adv-x="440" 
d="M363 575q0 -20 -14 -34t-34 -14t-33.5 14t-13.5 34t13.5 33.5t33.5 13.5t34 -13.5t14 -33.5zM172 575q0 -20 -13.5 -34t-33.5 -14t-34 14t-14 34t14 33.5t34 13.5t33.5 -13.5t13.5 -33.5zM133 159q-3 -10 -5 -19.5t-2 -20.5q0 -32 17.5 -55.5t52.5 -23.5q20 0 39 11.5
t33 25.5v151zM268 248q6 82 -16.5 118t-82.5 36q-26 0 -39 -6t-18 -17.5t-5 -27.5v-37l-50 -3q-6 0 -14.5 1t-8.5 9q0 10 18.5 32t46.5 44t62 38.5t64 16.5q34 0 57.5 -12t37 -33t19.5 -48t6 -57v-142q0 -33 0.5 -54.5t8 -35.5t25.5 -22.5t53 -15.5v-15q-29 -8 -53.5 -15
t-47.5 -7q-32 0 -45.5 17t-17.5 46q-24 -27 -56.5 -47.5t-70.5 -20.5q-24 0 -42.5 9.5t-31.5 25t-19.5 36t-6.5 43.5q0 21 6 44z" />
    <glyph glyph-name="agrave" unicode="&#xe0;" horiz-adv-x="440" 
d="M274 509l-14 -12l-182 170l47 49zM133 159q-3 -10 -5 -19.5t-2 -20.5q0 -32 17.5 -55.5t52.5 -23.5q20 0 39 11.5t33 25.5v151zM268 248q6 82 -16.5 118t-82.5 36q-26 0 -39 -6t-18 -17.5t-5 -27.5v-37l-50 -3q-6 0 -14.5 1t-8.5 9q0 10 18.5 32t46.5 44t62 38.5t64 16.5
q34 0 57.5 -12t37 -33t19.5 -48t6 -57v-142q0 -33 0.5 -54.5t8 -35.5t25.5 -22.5t53 -15.5v-15q-29 -8 -53.5 -15t-47.5 -7q-32 0 -45.5 17t-17.5 46q-24 -27 -56.5 -47.5t-70.5 -20.5q-24 0 -42.5 9.5t-31.5 25t-19.5 36t-6.5 43.5q0 21 6 44z" />
    <glyph glyph-name="aring" unicode="&#xe5;" horiz-adv-x="440" 
d="M276 582q0 23 -15.5 43t-41.5 20q-25 0 -40.5 -20t-15.5 -43q0 -24 15.5 -44t40.5 -20q26 0 41.5 20t15.5 44zM133 159q-3 -10 -5 -19.5t-2 -20.5q0 -32 17.5 -55.5t52.5 -23.5q20 0 39 11.5t33 25.5v151zM308 582q0 -37 -26 -63t-63 -26q-18 0 -34 7t-28 19t-19 28.5
t-7 34.5t7 34t19 28t28 19t34 7q37 0 63 -25.5t26 -62.5zM268 248q6 82 -16.5 118t-82.5 36q-26 0 -39 -6t-18 -17.5t-5 -27.5v-37l-50 -3q-6 0 -14.5 1t-8.5 9q0 10 18.5 32t46.5 44t62 38.5t64 16.5q34 0 57.5 -12t37 -33t19.5 -48t6 -57v-142q0 -33 0.5 -54.5t8 -35.5
t25.5 -22.5t53 -15.5v-15q-29 -8 -53.5 -15t-47.5 -7q-32 0 -45.5 17t-17.5 46q-24 -27 -56.5 -47.5t-70.5 -20.5q-24 0 -42.5 9.5t-31.5 25t-19.5 36t-6.5 43.5q0 21 6 44z" />
    <glyph glyph-name="atilde" unicode="&#xe3;" horiz-adv-x="440" 
d="M107 578q-17 0 -33.5 -7.5t-30.5 -15.5l-9 14q10 7 24.5 16.5t31 18t32 14.5t27.5 6q16 0 37 -8.5t42.5 -18.5t42 -18.5t37.5 -8.5q23 0 46.5 15t39.5 31l11 -11q-12 -13 -28 -27.5t-34 -26.5t-37 -20t-37 -8t-39 8.5t-43 19t-42.5 19t-37.5 8.5zM133 159
q-3 -10 -5 -19.5t-2 -20.5q0 -32 17.5 -55.5t52.5 -23.5q20 0 39 11.5t33 25.5v151zM268 248q6 82 -16.5 118t-82.5 36q-26 0 -39 -6t-18 -17.5t-5 -27.5v-37l-50 -3q-6 0 -14.5 1t-8.5 9q0 10 18.5 32t46.5 44t62 38.5t64 16.5q34 0 57.5 -12t37 -33t19.5 -48t6 -57v-142
q0 -33 0.5 -54.5t8 -35.5t25.5 -22.5t53 -15.5v-15q-29 -8 -53.5 -15t-47.5 -7q-32 0 -45.5 17t-17.5 46q-24 -27 -56.5 -47.5t-70.5 -20.5q-24 0 -42.5 9.5t-31.5 25t-19.5 36t-6.5 43.5q0 21 6 44z" />
    <glyph glyph-name="eacute" unicode="&#xe9;" horiz-adv-x="460" 
d="M372 667l-182 -170l-14 12l149 207zM318 332q-3 17 -10 34.5t-18.5 31.5t-26.5 23t-35 9q-21 0 -38.5 -9.5t-30 -24.5t-21 -34t-12.5 -38zM119 255q-3 -39 8 -75.5t34.5 -64t57.5 -44.5t76 -17q39 0 67 16.5t51 46.5l15 -11q-29 -49 -77 -82.5t-107 -33.5q-47 0 -85.5 18
t-66 48t-43 70.5t-15.5 85.5q0 48 16 91.5t45.5 76.5t71 52.5t92.5 19.5q68 0 109.5 -39.5t44.5 -107.5h-290z" />
    <glyph glyph-name="ecircumflex" unicode="&#xea;" horiz-adv-x="460" 
d="M318 332q-3 17 -10 34.5t-18.5 31.5t-26.5 23t-35 9q-21 0 -38.5 -9.5t-30 -24.5t-21 -34t-12.5 -38zM114 504l112 234h9l111 -234l-14 -7l-103 146l-99 -146zM119 255q-3 -39 8 -75.5t34.5 -64t57.5 -44.5t76 -17q39 0 67 16.5t51 46.5l15 -11q-29 -49 -77 -82.5
t-107 -33.5q-47 0 -85.5 18t-66 48t-43 70.5t-15.5 85.5q0 48 16 91.5t45.5 76.5t71 52.5t92.5 19.5q68 0 109.5 -39.5t44.5 -107.5h-290z" />
    <glyph glyph-name="edieresis" unicode="&#xeb;" horiz-adv-x="460" 
d="M373 575q0 -20 -14 -34t-34 -14t-33.5 14t-13.5 34t13.5 33.5t33.5 13.5t34 -13.5t14 -33.5zM182 575q0 -20 -13.5 -34t-33.5 -14t-34 14t-14 34t14 33.5t34 13.5t33.5 -13.5t13.5 -33.5zM318 332q-3 17 -10 34.5t-18.5 31.5t-26.5 23t-35 9q-21 0 -38.5 -9.5t-30 -24.5
t-21 -34t-12.5 -38zM119 255q-3 -39 8 -75.5t34.5 -64t57.5 -44.5t76 -17q39 0 67 16.5t51 46.5l15 -11q-29 -49 -77 -82.5t-107 -33.5q-47 0 -85.5 18t-66 48t-43 70.5t-15.5 85.5q0 48 16 91.5t45.5 76.5t71 52.5t92.5 19.5q68 0 109.5 -39.5t44.5 -107.5h-290z" />
    <glyph glyph-name="egrave" unicode="&#xe8;" horiz-adv-x="460" 
d="M304 509l-14 -12l-182 170l47 49zM318 332q-3 17 -10 34.5t-18.5 31.5t-26.5 23t-35 9q-21 0 -38.5 -9.5t-30 -24.5t-21 -34t-12.5 -38zM119 255q-3 -39 8 -75.5t34.5 -64t57.5 -44.5t76 -17q39 0 67 16.5t51 46.5l15 -11q-29 -49 -77 -82.5t-107 -33.5q-47 0 -85.5 18
t-66 48t-43 70.5t-15.5 85.5q0 48 16 91.5t45.5 76.5t71 52.5t92.5 19.5q68 0 109.5 -39.5t44.5 -107.5h-290z" />
    <glyph glyph-name="iacute" unicode="&#xed;" horiz-adv-x="260" 
d="M252 667l-182 -170l-14 12l149 207zM9 0v15q28 4 43.5 9.5t23 16t9.5 28.5t2 47v191q0 16 -1 27t-6.5 20.5t-18 19.5t-35.5 24v10l127 44l11 -4v-332q0 -31 2 -49t9.5 -28t23 -15t43.5 -9v-15h-233z" />
    <glyph glyph-name="icircumflex" unicode="&#xee;" horiz-adv-x="260" 
d="M-6 504l112 234h9l111 -234l-14 -7l-103 146l-99 -146zM9 0v15q28 4 43.5 9.5t23 16t9.5 28.5t2 47v191q0 16 -1 27t-6.5 20.5t-18 19.5t-35.5 24v10l127 44l11 -4v-332q0 -31 2 -49t9.5 -28t23 -15t43.5 -9v-15h-233z" />
    <glyph glyph-name="idieresis" unicode="&#xef;" horiz-adv-x="260" 
d="M273 575q0 -20 -14 -34t-34 -14t-33.5 14t-13.5 34t13.5 33.5t33.5 13.5t34 -13.5t14 -33.5zM82 575q0 -20 -13.5 -34t-33.5 -14t-34 14t-14 34t14 33.5t34 13.5t33.5 -13.5t13.5 -33.5zM9 0v15q28 4 43.5 9.5t23 16t9.5 28.5t2 47v191q0 16 -1 27t-6.5 20.5t-18 19.5
t-35.5 24v10l127 44l11 -4v-332q0 -31 2 -49t9.5 -28t23 -15t43.5 -9v-15h-233z" />
    <glyph glyph-name="igrave" unicode="&#xec;" horiz-adv-x="260" 
d="M204 509l-14 -12l-182 170l47 49zM9 0v15q28 4 43.5 9.5t23 16t9.5 28.5t2 47v191q0 16 -1 27t-6.5 20.5t-18 19.5t-35.5 24v10l127 44l11 -4v-332q0 -31 2 -49t9.5 -28t23 -15t43.5 -9v-15h-233z" />
    <glyph glyph-name="ntilde" unicode="&#xf1;" 
d="M147 578q-17 0 -33.5 -7.5t-30.5 -15.5l-9 14q10 7 24.5 16.5t31 18t32 14.5t27.5 6q16 0 37 -8.5t42.5 -18.5t42 -18.5t37.5 -8.5q23 0 46.5 15t39.5 31l11 -11q-12 -13 -28 -27.5t-34 -26.5t-37 -20t-37 -8t-39 8.5t-43 19t-42.5 19t-37.5 8.5zM92 307q0 16 -0.5 27
t-5 20.5t-14.5 19.5t-29 24v10l119 44l11 -4l-8 -73q43 32 85.5 54.5t90.5 22.5q45 0 70.5 -16.5t37.5 -40.5t15 -51.5t3 -49.5v-178q0 -31 2 -49t9.5 -28t23 -15t43.5 -9v-15h-233v15q28 4 43.5 9.5t23 16t9.5 28.5t2 47v115q0 26 -1.5 56t-12.5 55t-35 41.5t-70 16.5
q-31 0 -54 -10t-48 -33v-241q0 -31 2 -49t9.5 -28t23 -15t43.5 -9v-15h-233v15q28 4 43.5 9.5t23 16t9.5 28.5t2 47v191z" />
    <glyph glyph-name="oacute" unicode="&#xf3;" 
d="M402 667l-182 -170l-14 12l149 207zM433 213q0 34 -8.5 72.5t-27.5 70.5t-48 53t-70 21t-69.5 -19t-47 -48.5t-27 -66t-8.5 -70.5q0 -35 10 -72.5t29.5 -69t49.5 -52t71 -20.5q38 0 65.5 19.5t45.5 49t26.5 65t8.5 67.5zM526 223q0 -51 -20 -94t-53.5 -73.5t-78.5 -48
t-94 -17.5q-51 0 -96 16t-78.5 45.5t-52.5 72t-19 95.5q0 52 19.5 94.5t53.5 73.5t79 48t95 17q51 0 95.5 -16t78 -45.5t52.5 -72t19 -95.5z" />
    <glyph glyph-name="ocircumflex" unicode="&#xf4;" 
d="M164 504l112 234h9l111 -234l-14 -7l-103 146l-99 -146zM433 213q0 34 -8.5 72.5t-27.5 70.5t-48 53t-70 21t-69.5 -19t-47 -48.5t-27 -66t-8.5 -70.5q0 -35 10 -72.5t29.5 -69t49.5 -52t71 -20.5q38 0 65.5 19.5t45.5 49t26.5 65t8.5 67.5zM526 223q0 -51 -20 -94
t-53.5 -73.5t-78.5 -48t-94 -17.5q-51 0 -96 16t-78.5 45.5t-52.5 72t-19 95.5q0 52 19.5 94.5t53.5 73.5t79 48t95 17q51 0 95.5 -16t78 -45.5t52.5 -72t19 -95.5z" />
    <glyph glyph-name="odieresis" unicode="&#xf6;" 
d="M423 575q0 -20 -14 -34t-34 -14t-33.5 14t-13.5 34t13.5 33.5t33.5 13.5t34 -13.5t14 -33.5zM232 575q0 -20 -13.5 -34t-33.5 -14t-34 14t-14 34t14 33.5t34 13.5t33.5 -13.5t13.5 -33.5zM433 213q0 34 -8.5 72.5t-27.5 70.5t-48 53t-70 21t-69.5 -19t-47 -48.5t-27 -66
t-8.5 -70.5q0 -35 10 -72.5t29.5 -69t49.5 -52t71 -20.5q38 0 65.5 19.5t45.5 49t26.5 65t8.5 67.5zM526 223q0 -51 -20 -94t-53.5 -73.5t-78.5 -48t-94 -17.5q-51 0 -96 16t-78.5 45.5t-52.5 72t-19 95.5q0 52 19.5 94.5t53.5 73.5t79 48t95 17q51 0 95.5 -16t78 -45.5
t52.5 -72t19 -95.5z" />
    <glyph glyph-name="ograve" unicode="&#xf2;" 
d="M354 509l-14 -12l-182 170l47 49zM433 213q0 34 -8.5 72.5t-27.5 70.5t-48 53t-70 21t-69.5 -19t-47 -48.5t-27 -66t-8.5 -70.5q0 -35 10 -72.5t29.5 -69t49.5 -52t71 -20.5q38 0 65.5 19.5t45.5 49t26.5 65t8.5 67.5zM526 223q0 -51 -20 -94t-53.5 -73.5t-78.5 -48
t-94 -17.5q-51 0 -96 16t-78.5 45.5t-52.5 72t-19 95.5q0 52 19.5 94.5t53.5 73.5t79 48t95 17q51 0 95.5 -16t78 -45.5t52.5 -72t19 -95.5z" />
    <glyph glyph-name="otilde" unicode="&#xf5;" 
d="M167 578q-17 0 -33.5 -7.5t-30.5 -15.5l-9 14q10 7 24.5 16.5t31 18t32 14.5t27.5 6q16 0 37 -8.5t42.5 -18.5t42 -18.5t37.5 -8.5q23 0 46.5 15t39.5 31l11 -11q-12 -13 -28 -27.5t-34 -26.5t-37 -20t-37 -8t-39 8.5t-43 19t-42.5 19t-37.5 8.5zM433 213q0 34 -8.5 72.5
t-27.5 70.5t-48 53t-70 21t-69.5 -19t-47 -48.5t-27 -66t-8.5 -70.5q0 -35 10 -72.5t29.5 -69t49.5 -52t71 -20.5q38 0 65.5 19.5t45.5 49t26.5 65t8.5 67.5zM526 223q0 -51 -20 -94t-53.5 -73.5t-78.5 -48t-94 -17.5q-51 0 -96 16t-78.5 45.5t-52.5 72t-19 95.5
q0 52 19.5 94.5t53.5 73.5t79 48t95 17q51 0 95.5 -16t78 -45.5t52.5 -72t19 -95.5z" />
    <glyph glyph-name="uacute" unicode="&#xfa;" 
d="M382 667l-182 -170l-14 12l149 207zM457 111q0 -14 -1 -27t2 -23.5t12 -17t27 -6.5l46 4l4 -15l-170 -41l3 78q-41 -29 -85.5 -51t-95.5 -22q-42 0 -65 16.5t-33 40t-11.5 48t-1.5 40.5v175v46t-6 33t-21.5 19t-46.5 6v15l151 13v-247v-42q0 -26 8.5 -51t30.5 -43.5
t66 -18.5q31 0 59 12t51 32v215q0 33 -1.5 55t-10.5 35.5t-27.5 19t-52.5 5.5v15l175 13z" />
    <glyph glyph-name="ucircumflex" unicode="&#xfb;" 
d="M164 504l112 234h9l111 -234l-14 -7l-103 146l-99 -146zM457 111q0 -14 -1 -27t2 -23.5t12 -17t27 -6.5l46 4l4 -15l-170 -41l3 78q-41 -29 -85.5 -51t-95.5 -22q-42 0 -65 16.5t-33 40t-11.5 48t-1.5 40.5v175v46t-6 33t-21.5 19t-46.5 6v15l151 13v-247v-42
q0 -26 8.5 -51t30.5 -43.5t66 -18.5q31 0 59 12t51 32v215q0 33 -1.5 55t-10.5 35.5t-27.5 19t-52.5 5.5v15l175 13z" />
    <glyph glyph-name="udieresis" unicode="&#xfc;" 
d="M423 575q0 -20 -14 -34t-34 -14t-33.5 14t-13.5 34t13.5 33.5t33.5 13.5t34 -13.5t14 -33.5zM232 575q0 -20 -13.5 -34t-33.5 -14t-34 14t-14 34t14 33.5t34 13.5t33.5 -13.5t13.5 -33.5zM457 111q0 -14 -1 -27t2 -23.5t12 -17t27 -6.5l46 4l4 -15l-170 -41l3 78
q-41 -29 -85.5 -51t-95.5 -22q-42 0 -65 16.5t-33 40t-11.5 48t-1.5 40.5v175v46t-6 33t-21.5 19t-46.5 6v15l151 13v-247v-42q0 -26 8.5 -51t30.5 -43.5t66 -18.5q31 0 59 12t51 32v215q0 33 -1.5 55t-10.5 35.5t-27.5 19t-52.5 5.5v15l175 13z" />
    <glyph glyph-name="ugrave" unicode="&#xf9;" 
d="M354 509l-14 -12l-182 170l47 49zM457 111q0 -14 -1 -27t2 -23.5t12 -17t27 -6.5l46 4l4 -15l-170 -41l3 78q-41 -29 -85.5 -51t-95.5 -22q-42 0 -65 16.5t-33 40t-11.5 48t-1.5 40.5v175v46t-6 33t-21.5 19t-46.5 6v15l151 13v-247v-42q0 -26 8.5 -51t30.5 -43.5
t66 -18.5q31 0 59 12t51 32v215q0 33 -1.5 55t-10.5 35.5t-27.5 19t-52.5 5.5v15l175 13z" />
    <glyph glyph-name="ydieresis" unicode="&#xff;" horiz-adv-x="460" 
d="M373 575q0 -20 -14 -34t-34 -14t-33.5 14t-13.5 34t13.5 33.5t33.5 13.5t34 -13.5t14 -33.5zM182 575q0 -20 -13.5 -34t-33.5 -14t-34 14t-14 34t14 33.5t34 13.5t33.5 -13.5t13.5 -33.5zM58 364q-7 17 -12 28t-12 17.5t-18 10.5t-30 7v15h207v-15q-29 -2 -41 -10.5
t-13.5 -22.5t4.5 -31.5t14 -36.5l98 -254l62 180q17 49 26 81t8 51.5t-14 29t-41 13.5v15h175v-15q-33 -4 -48 -18t-29 -43l-42 -97l-154 -387q-14 -35 -26 -58.5t-24 -38t-25 -21t-28 -6.5q-20 0 -34.5 14.5t-14.5 35.5q0 16 8.5 29t23.5 18q4 -2 11 -7t15 -9.5t15 -8
t12 -3.5q8 0 15.5 8.5t13.5 20t10.5 23t7.5 17.5l33 77z" />
    <glyph glyph-name="exclam" unicode="!" horiz-adv-x="320" 
d="M156 -12q-23 0 -38.5 15.5t-15.5 38.5t15.5 39t38.5 16t39 -16t16 -39t-16 -38.5t-39 -15.5zM145 205l-36 354l-4 63q0 12 2.5 24.5t8 22.5t15 16.5t23.5 6.5t23.5 -6.5t15.5 -16.5t8.5 -22.5t2.5 -24.5l-4 -63l-36 -354h-19z" />
    <glyph glyph-name="quotedbl" unicode="&#x22;" horiz-adv-x="520" 
d="M346 407q-1 -6 -2 -18.5t-11 -12.5t-10.5 12.5t-1.5 18.5l-16 204q-1 9 -1.5 23t1.5 27t9 22t22 9t22 -9t10 -22t2.5 -27t-1.5 -23zM202 407q-1 -6 -2 -18.5t-11 -12.5t-10.5 12.5t-1.5 18.5l-16 204q-1 9 -1.5 23t1.5 27t9 22t22 9t22 -9t10 -22t2.5 -27t-1.5 -23z" />
    <glyph glyph-name="Lslash" unicode="&#x141;" horiz-adv-x="640" 
d="M30 15q45 6 69.5 15.5t36.5 26.5t14.5 42.5t3.5 64.5v135l-112 -74l-20 32l132 81v178q-1 39 -3.5 64.5t-14.5 42.5t-36.5 26.5t-69.5 15.5v15h336v-15q-45 -6 -70 -15.5t-37 -26.5t-14.5 -42.5t-2.5 -64.5v-129l177 119l23 -34l-200 -125v-159q0 -38 2 -76.5t13 -74.5
l122 -9q57 -4 93 3t62 27t48 53t51 81l13 -6l-57 -186h-559v15z" />
    <glyph glyph-name="lslash" unicode="&#x142;" horiz-adv-x="280" 
d="M22 0v15q28 4 43.5 9.5t23 16t9.5 28.5t2 47v226l-77 -50l-15 23l92 60v198q0 16 -0.5 27t-5 20.5t-14.5 19.5t-29 24v10l115 44l11 -4v-296l88 61l18 -25l-106 -69v-269q0 -31 2 -49t9.5 -28t23 -15t43.5 -9v-15h-233z" />
    <glyph glyph-name="threequarters" unicode="&#xbe;" horiz-adv-x="840" 
d="M505 166h141v170zM269 0h-48l382 680h48zM173 508q27 9 50.5 31t23.5 52q0 27 -21 41t-48 14q-30 0 -55.5 -13.5t-45.5 -32.5l-12 7q25 37 57 61t83 24q19 0 37 -5.5t32.5 -16t23 -26t8.5 -34.5q0 -21 -10.5 -37.5t-27 -29t-36 -22t-37.5 -16.5v-2q26 -2 49.5 -9.5
t41 -20.5t27.5 -32t10 -44q0 -28 -14.5 -51.5t-37 -40t-51.5 -26t-57 -9.5q-16 0 -35.5 3.5t-37 11.5t-29 21t-11.5 32q0 22 20.5 33t45.5 -2v-12q0 -27 18.5 -46.5t49.5 -19.5q38 0 59 26t21 59q0 21 -10.5 37.5t-27 27t-37 16t-41.5 5.5q-12 0 -23.5 -1.5t-23.5 -3.5l-5 8
q13 10 21.5 16.5t15 11t13 7.5t15.5 5zM707 411q-2 -37 -3 -66.5t-1.5 -57.5t-0.5 -57v-64h88v-39h-88v-25q0 -20 1 -34.5t8.5 -24.5t23.5 -17t46 -11v-15h-217v15q31 4 48 11t24.5 17t8.5 24.5t1 34.5v25h-186l-3 15l229 276z" />
    <glyph glyph-name="onequarter" unicode="&#xbc;" horiz-adv-x="840" 
d="M513 166h141v170zM194 680q-4 -84 -4.5 -152.5t0.5 -138.5q0 -27 1.5 -45t10 -29.5t27 -18t53.5 -9.5v-15h-241v15q34 3 52.5 9.5t27 18t10 29.5t2.5 45v188q0 22 -2 37.5t-10.5 25.5t-26.5 16t-51 9v15h151zM264 0h-48l382 680h48zM715 411q-2 -37 -3 -66.5t-1.5 -57.5
t-0.5 -57v-64h88v-39h-88v-25q0 -20 1 -34.5t8.5 -24.5t23.5 -17t46 -11v-15h-217v15q31 4 48 11t24.5 17t8.5 24.5t1 34.5v25h-186l-3 15l229 276z" />
    <glyph glyph-name="onesuperior" unicode="&#xb9;" horiz-adv-x="336" 
d="M201 692q-4 -84 -4.5 -152.5t0.5 -138.5q0 -27 1.5 -45t10 -29.5t27 -18t53.5 -9.5v-15h-241v15q34 3 52.5 9.5t27 18t10 29.5t2.5 45v188q0 22 -2 37.5t-10.5 25.5t-26.5 16t-51 9v15h151z" />
    <glyph glyph-name="multiply" unicode="&#xd7;" 
d="M243 221l-184 183l39 38l183 -183l183 183l38 -38l-183 -183l183 -183l-38 -38l-183 183l-183 -183l-39 38z" />
    <glyph glyph-name="Thorn" unicode="&#xde;" horiz-adv-x="600" 
d="M154 516q-1 39 -3.5 64.5t-14.5 42.5t-36.5 26.5t-69.5 15.5v15h345v-15q-49 -7 -76 -18t-39.5 -27t-15 -38t-2.5 -52q115 2 180.5 -11.5t98.5 -33.5t41 -41.5t8 -36.5q0 -46 -23.5 -76.5t-60.5 -49.5t-82.5 -28t-89.5 -11l-3 15q34 4 63 12t50 23.5t32.5 38.5t11.5 57
t-19 57.5t-50.5 37.5t-72 19.5t-84.5 3.5v-342q0 -41 2.5 -67t15 -41.5t39.5 -24.5t76 -16v-15h-345v15q45 6 69.5 15.5t36.5 26.5t14.5 42.5t3.5 64.5v352z" />
    <glyph glyph-name="brokenbar" unicode="&#xa6;" horiz-adv-x="280" 
d="M113 675h54v-350h-54v350zM113 175h54v-350h-54v350z" />
    <glyph glyph-name="Eth" unicode="&#xd0;" horiz-adv-x="820" 
d="M243 386h184v-42h-184v-190q0 -25 4 -48.5t17.5 -42t40.5 -29.5t74 -11q43 0 90.5 15t87.5 49.5t66 92t26 143.5q0 90 -33 154.5t-88.5 105.5t-129.5 60t-155 19v-276zM155 511q-1 39 -3.5 64.5t-14 42.5t-34.5 26.5t-66 15.5v14l242 8q110 3 189 -13.5t133 -46t86 -68
t49.5 -78t23 -76t5.5 -62.5q0 -36 -8.5 -75t-28 -77t-52.5 -72.5t-81.5 -60.5t-114 -41t-151.5 -14l-298 2v15q45 6 69.5 15.5t36.5 26.5t14.5 42.5t3.5 64.5v180h-118v42h118v125z" />
    <glyph glyph-name="onehalf" unicode="&#xbd;" horiz-adv-x="840" 
d="M203 680q-4 -84 -4.5 -152.5t0.5 -138.5q0 -27 1.5 -45t10 -29.5t27 -18t53.5 -9.5v-15h-241v15q34 3 52.5 9.5t27 18t10 29.5t2.5 45v188q0 22 -2 37.5t-10.5 25.5t-26.5 16t-51 9v15h151zM253 0h-48l382 680h48zM744 0h-266l-4 8q31 23 70 54.5t73 67.5t57 75.5
t23 78.5q0 34 -23 58t-61 24q-33 0 -58.5 -17t-47.5 -38l-9 7q10 19 24.5 36.5t32 31t38.5 21.5t45 8q27 0 49 -9.5t37.5 -26t23.5 -37.5t8 -45q0 -35 -20.5 -69.5t-51 -66.5t-65.5 -60.5t-65 -51.5h120q25 0 40.5 3t26.5 10.5t19.5 20.5t20.5 33l9 -4z" />
    <glyph glyph-name="minus" unicode="&#x2212;" 
d="M58 194v54h443v-54h-443z" />
    <glyph glyph-name="eth" unicode="&#xf0;" 
d="M433 213q0 34 -8.5 72.5t-27.5 70.5t-48 53t-70 21t-69.5 -19t-47 -48.5t-27 -66t-8.5 -70.5q0 -35 10 -72.5t29.5 -69t49.5 -52t71 -20.5q38 0 65.5 19.5t45.5 49t26.5 65t8.5 67.5zM177 718q42 -16 83.5 -40t79.5 -56l124 49l27 -30l-119 -47q66 -63 110 -152.5
t44 -206.5q0 -56 -20 -101t-53.5 -77t-78.5 -49.5t-94 -17.5q-51 0 -96 16t-78.5 45.5t-52.5 72t-19 95.5q0 52 19.5 94.5t53 73.5t78 48t93.5 17q17 0 30.5 -1t27 -4t29.5 -9t39 -16q-14 42 -34 80t-49 72l-131 -52l-24 31l127 51q-29 29 -65 55.5t-81 49.5z" />
    <glyph glyph-name="thorn" unicode="&#xfe;" horiz-adv-x="540" 
d="M150 168q0 -20 2.5 -45.5t14.5 -48t37 -38t70 -15.5q37 0 63 17.5t43 45t25 61t8 64.5q0 57 -19 94t-46 59t-56 31t-48 9q-28 0 -49.5 -6.5t-44.5 -22.5v-205zM150 -126q0 -31 2.5 -49t13 -28t32.5 -15t61 -9v-15h-259v15q26 4 40.5 9.5t21.5 16t9 28.5t2 47v657
q0 16 -0.5 27t-5 20.5t-14.5 19.5t-29 24v10l119 48l11 -4l-4 -61v-224q35 24 75 42.5t84 18.5q43 0 77.5 -17.5t59.5 -46.5t38.5 -67t13.5 -78q0 -48 -21 -94.5t-58.5 -82.5t-89 -57.5t-112.5 -18.5l-67 3v-119z" />
    <glyph glyph-name="twosuperior" unicode="&#xb2;" horiz-adv-x="336" 
d="M280 277h-266l-4 8q31 23 70 54.5t73 67.5t57 75.5t23 78.5q0 34 -23 58t-61 24q-33 0 -58.5 -17t-47.5 -38l-9 7q10 19 24.5 36.5t32 31t38.5 21.5t45 8q27 0 49 -9.5t37.5 -26t23.5 -37.5t8 -45q0 -35 -20.5 -69.5t-51 -66.5t-65.5 -60.5t-65 -51.5h120q25 0 40.5 3
t26.5 10.5t19.5 20.5t20.5 33l9 -4z" />
    <glyph glyph-name="threesuperior" unicode="&#xb3;" horiz-adv-x="336" 
d="M154 508q27 9 50.5 31t23.5 52q0 27 -21 41t-48 14q-30 0 -55.5 -13.5t-45.5 -32.5l-12 7q25 37 57 61t83 24q19 0 37 -5.5t32.5 -16t23 -26t8.5 -34.5q0 -21 -10.5 -37.5t-27 -29t-36 -22t-37.5 -16.5v-2q26 -2 49.5 -9.5t41 -20.5t27.5 -32t10 -44q0 -28 -14.5 -51.5
t-37 -40t-51.5 -26t-57 -9.5q-16 0 -35.5 3.5t-37 11.5t-29 21t-11.5 32q0 22 20.5 33t45.5 -2v-12q0 -27 18.5 -46.5t49.5 -19.5q38 0 59 26t21 59q0 21 -10.5 37.5t-27 27t-37 16t-41.5 5.5q-12 0 -23.5 -1.5t-23.5 -3.5l-5 8q13 10 21.5 16.5t15 11t13 7.5t15.5 5z" />
    <glyph glyph-name="Scaron" unicode="&#x160;" horiz-adv-x="520" 
d="M376 958l-112 -233h-9l-111 233l14 8l103 -146l100 146zM431 504h-16q-6 30 -15 59t-24.5 51t-40 35.5t-61.5 13.5q-24 0 -45.5 -8t-37 -22.5t-25 -34.5t-9.5 -45q0 -43 23.5 -73t58.5 -54.5t75.5 -46t75.5 -48.5t58.5 -62t23.5 -85q0 -48 -22 -85t-56.5 -61.5t-78 -37
t-86.5 -12.5q-46 0 -92 13t-84 38l-29 170h18q9 -36 26.5 -70.5t42.5 -61t58.5 -43t74.5 -16.5q28 0 52 8t42 23.5t28 38.5t10 52q0 44 -22.5 74.5t-56.5 54t-74 44t-74 46t-56.5 59.5t-22.5 84q0 44 20 79.5t51.5 60t71.5 38t80 13.5q38 0 75.5 -10.5t70.5 -28.5z" />
    <glyph glyph-name="Yacute" unicode="&#xdd;" horiz-adv-x="600" 
d="M442 885l-182 -170l-14 12l149 207zM627 680v-15q-33 -3 -58 -13t-45 -26.5t-36.5 -38.5t-32.5 -49l-118 -234v-113q1 -43 3.5 -73t15 -50.5t39 -33t74.5 -19.5v-15h-352v15q48 7 74.5 19.5t39 33t15 50.5t3.5 73v80l-104 227q-14 31 -27.5 59.5t-31.5 51t-43.5 37
t-63.5 19.5v15h276v-15q-31 -4 -45.5 -12.5t-17 -22.5t4.5 -33.5t19 -45.5l100 -216l87 165q23 43 33 73t6.5 49t-21.5 29t-51 14v15h257z" />
    <glyph glyph-name="Zcaron" unicode="&#x17d;" horiz-adv-x="700" 
d="M466 958l-112 -233h-9l-111 233l14 8l103 -146l100 146zM84 680h531l5 -7l-443 -643h95q29 0 63 0.5t68 3.5t67 9t60 17q31 13 52.5 33.5t36.5 46.5t24.5 55.5t16.5 59.5l15 -3q-6 -65 -19.5 -128.5t-38.5 -123.5h-576l-4 7l66 90l381 553h-94h-51q-29 0 -60 -2
t-59.5 -6.5t-46.5 -12.5q-20 -9 -35 -25.5t-25.5 -36.5t-17.5 -42t-11 -42h-16z" />
    <glyph glyph-name="scaron" unicode="&#x161;" horiz-adv-x="360" 
d="M296 730l-112 -233h-9l-111 233l14 8l103 -146l100 146zM302 330l-22 -4q-5 17 -12.5 35t-18 33t-26 24.5t-36.5 9.5q-31 0 -48.5 -20t-17.5 -50q0 -26 15.5 -44t38.5 -32.5t49.5 -28t49.5 -30.5t38.5 -39.5t15.5 -54.5q0 -33 -14.5 -59t-38 -44t-53.5 -27t-60 -9
q-33 0 -64.5 9t-57.5 28l-8 111l23 4q5 -23 14.5 -45.5t23.5 -40.5t34 -29t47 -11q35 0 56 22.5t21 56.5q0 28 -15.5 46.5t-38.5 33t-49.5 27t-49.5 29t-38.5 39.5t-15.5 59q0 29 12.5 52t33 38.5t46 24t52.5 8.5q29 0 58 -8t53 -25z" />
    <glyph glyph-name="yacute" unicode="&#xfd;" horiz-adv-x="460" 
d="M352 667l-182 -170l-14 12l149 207zM58 364q-7 17 -12 28t-12 17.5t-18 10.5t-30 7v15h207v-15q-29 -2 -41 -10.5t-13.5 -22.5t4.5 -31.5t14 -36.5l98 -254l62 180q17 49 26 81t8 51.5t-14 29t-41 13.5v15h175v-15q-33 -4 -48 -18t-29 -43l-42 -97l-154 -387
q-14 -35 -26 -58.5t-24 -38t-25 -21t-28 -6.5q-20 0 -34.5 14.5t-14.5 35.5q0 16 8.5 29t23.5 18q4 -2 11 -7t15 -9.5t15 -8t12 -3.5q8 0 15.5 8.5t13.5 20t10.5 23t7.5 17.5l33 77z" />
    <glyph glyph-name="zcaron" unicode="&#x17e;" horiz-adv-x="480" 
d="M356 730l-112 -233h-9l-111 233l14 8l103 -146l100 146zM433 442l4 -7q-75 -103 -148.5 -204.5t-139.5 -204.5h69q47 0 82.5 2.5t61.5 16t44.5 42t30.5 80.5l17 -3l-39 -164h-375l-5 8q150 204 288 408h-26q-65 0 -104 -1.5t-62 -11t-33.5 -30.5t-18.5 -61l-18 3l11 127
h361z" />
    <glyph glyph-name="nonbreakingspace" horiz-adv-x="280" 
 />
    <glyph glyph-name="Euro" unicode="&#x20ac;" 
d="M76 281q-3 25 -3 53v19q0 10 1 20h-54l6 30h52q9 57 31.5 109.5t59 92t86.5 63.5t113 24q42 0 83.5 -10t77.5 -37v-168h-15q-6 37 -17.5 71t-28.5 60.5t-41 42t-55 15.5q-42 0 -75.5 -20.5t-58 -56t-39.5 -83.5t-20 -103h278l-6 -30h-274v-25q0 -16 1 -33t4 -34h250
l-6 -30h-239q9 -42 25.5 -83t41.5 -73.5t59.5 -52.5t79.5 -20q36 0 71 15.5t64 47.5l13 -15q-33 -40 -79.5 -61t-97.5 -21q-59 0 -107 20t-84 55.5t-59.5 83.5t-33.5 104h-60l6 30h50z" />
    </font>
</defs>
</svg>
