<?xml version="1.0" standalone="no"?>
<!DOCTYPE svg PUBLIC "-//W3C//DTD SVG 1.1//EN" "http://www.w3.org/Graphics/SVG/1.1/DTD/svg11.dtd" >
<svg xmlns="http://www.w3.org/2000/svg">
<metadata></metadata>
<defs>
<font id="gabriolaregular" horiz-adv-x="0" >
<font-face units-per-em="4096" ascent="2800" descent="-1296" />
<missing-glyph horiz-adv-x="715" />
<glyph unicode="fb" horiz-adv-x="2543" d="M1532 2684q-19 -160 -38 -330t-37.5 -344.5t-35 -350t-30.5 -347t-24.5 -336t-16.5 -315.5l11 -1q79 194 170 342t185 248t186.5 151t174.5 51q69 0 122 -25.5t92 -68t65 -98t42 -116t22.5 -122.5t6.5 -116q0 -149 -29.5 -278.5t-81.5 -236t-123 -189.5t-154 -140 t-175 -86.5t-185 -29.5q-62 0 -124.5 14t-122 43t-112.5 74.5t-95 107.5q-35 -88 -71 -144t-67 -90l-52 13q55 153 81 367.5t40 485.5q5 100 11.5 223.5t13.5 261t15 283.5t16 290.5t15.5 281.5t14.5 257q0 39 -16.5 70.5t-45 54t-68 35t-84.5 12.5q-78 0 -136.5 -24 t-102 -64.5t-73 -95.5t-50 -117t-33 -128.5t-21.5 -129.5q-12 -87 -20.5 -164t-14.5 -154t-10 -159t-7 -178q46 -2 91.5 -3.5t85.5 -3t72.5 -2.5t54.5 -1q42 0 81 4t65 9q11 -36 11 -57q0 -42 -38 -55t-117 -13q-54 0 -133 5.5t-176 9.5q-4 -119 -10 -259t-15.5 -290 t-23.5 -304.5t-34.5 -301.5t-48.5 -280.5t-65 -242.5q-59 -171 -133 -285.5t-157.5 -184t-173 -99t-178.5 -29.5q-77 0 -142.5 17t-113.5 46t-75.5 67.5t-27.5 81.5q0 24 11 47.5t30.5 41.5t46 29.5t57.5 11.5q29 -52 64 -88.5t75 -60t83 -34.5t87 -11q115 0 195.5 74.5 t135 211t85.5 329.5t47.5 429.5t22 511t7.5 575.5q-94 -1 -173.5 -7t-133.5 -26q-4 9 -4 19q0 24 22.5 45t64 36.5t99.5 25.5t129 13q8 107 15 208t20 200t34 197t57 199q49 138 121.5 236t157 160.5t176 91.5t178.5 29q57 0 105 -11t88 -29q17 32 57.5 46.5t85.5 14.5 q61 0 127 -32zM2181 809q0 68 -10.5 140t-33 130.5t-59 96t-88.5 37.5q-61 0 -120.5 -30.5t-115 -82t-106.5 -119t-95.5 -141.5t-80 -149.5t-61 -143.5t-39.5 -123.5t-14 -88.5q15 -62 46.5 -112.5t76 -86t99 -54.5t115.5 -19q100 0 188.5 50.5t154.5 146.5t104.5 234.5 t38.5 314.5z" />
<glyph unicode="ffb" horiz-adv-x="3391" d="M1917 2695q57 0 105 -11t88 -29q17 32 57.5 46.5t85.5 14.5q61 0 127 -32q-19 -160 -38 -330t-37.5 -344.5t-35 -350t-30.5 -347t-24.5 -336t-16.5 -315.5l11 -1q79 194 170 342t185 248t186.5 151t174.5 51q69 0 122 -25.5t92 -68t65 -98t42 -116t22.5 -122.5t6.5 -116 q0 -149 -29.5 -278.5t-81.5 -236t-123 -189.5t-154 -140t-175 -86.5t-185 -29.5q-62 0 -124.5 14t-122 43t-112.5 74.5t-95 107.5q-35 -88 -71 -144t-67 -90l-52 13q55 153 81 367.5t40 485.5q5 100 11.5 223.5t13.5 261t15 283.5t16 290.5t15.5 281.5t14.5 257 q0 39 -16.5 70.5t-45 54t-68 35t-84.5 12.5q-78 0 -136.5 -24t-102 -64.5t-73 -95.5t-50 -117t-33 -128.5t-21.5 -129.5q-12 -86 -20.5 -163t-14.5 -155t-10 -162.5t-7 -184.5q49 -1 96.5 -1.5t90.5 -0.5q87 0 155 3.5t116 11.5q2 -15 3.5 -29t1.5 -25q0 -25 -14 -39.5 t-41.5 -22.5t-69.5 -10.5t-97 -2.5q-48 0 -110 1.5t-135 3.5q-4 -117 -10.5 -254.5t-16.5 -284t-25 -296.5t-36 -293t-48.5 -273.5t-63.5 -236.5q-58 -168 -130 -279t-152.5 -178t-167.5 -94.5t-174 -27.5q-77 0 -136.5 17.5t-100 45t-61.5 62t-21 68.5q0 42 31.5 76.5 t100.5 49.5q28 -48 59.5 -81t66.5 -53t74 -28.5t82 -8.5q114 0 193.5 72.5t132 205.5t82.5 320.5t45.5 418.5t20 499.5t6.5 562.5q-120 4 -241.5 7t-238.5 3h-60h-29t-29 -1q-4 -119 -10 -259t-15.5 -290t-23.5 -304t-34.5 -301t-48.5 -281t-65 -243q-59 -171 -133 -285.5 t-157.5 -184t-173 -99t-178.5 -29.5q-77 0 -142.5 17t-113.5 46t-75.5 67.5t-27.5 81.5q0 24 11 47.5t30.5 41.5t46 29.5t57.5 11.5q29 -52 64 -88.5t75 -60t83 -34.5t87 -11q115 0 195.5 74.5t135 211t85.5 329.5t47.5 429.5t22 511t7.5 575.5q-94 -5 -173.5 -11.5 t-133.5 -26.5q-4 9 -4 19q0 24 22.5 45t64 36.5t99.5 25.5t129 13q4 91 10 174.5t16 164.5t24.5 162t35.5 168q40 169 115 289t168.5 196.5t197 111.5t202.5 35q75 0 136.5 -16t109 -43t80.5 -63t51 -76q51 57 107.5 98t115.5 68t119 39.5t119 12.5zM1220 2250q9 22 15.5 39 t10 33t5.5 31t2 32q0 48 -19.5 82.5t-51 56.5t-70 32t-76.5 10q-79 0 -138.5 -23.5t-103.5 -63.5t-74.5 -94t-51 -115t-33.5 -126.5t-22 -127.5q-12 -85 -20.5 -160.5t-15 -151t-10.5 -155t-7 -172.5q16 1 31 1h30h62q121 0 240.5 -2.5t234.5 -6.5q6 110 13 212.5t20 201.5 t35 196.5t58 198.5q5 13 9.5 25t9.5 24q-37 0 -79 12zM3029 809q0 68 -10.5 140t-33 130.5t-59 96t-88.5 37.5q-61 0 -120.5 -30.5t-115 -82t-106.5 -119t-95.5 -141.5t-80 -149.5t-61 -143.5t-39.5 -123.5t-14 -88.5q15 -62 46.5 -112.5t76 -86t99 -54.5t115.5 -19 q100 0 188.5 50.5t154.5 146.5t104.5 234.5t38.5 314.5z" />
<glyph unicode="&#xfb00;" horiz-adv-x="1777" d="M310 1374q4 91 10 174.5t16 164.5t24.5 162t35.5 168q40 169 115 289t168.5 196.5t197 111.5t202.5 35q73 0 133 -14.5t106.5 -40t80 -59.5t52.5 -73q52 60 111 102.5t121 70.5t125 41t123 13q97 0 172.5 -25.5t128 -67t80 -93.5t27.5 -106q0 -42 -13.5 -75t-37 -55.5 t-54.5 -34.5t-66 -12q-46 0 -97 23l-4 11q19 44 28.5 77t9.5 68q0 48 -19.5 82.5t-51 56.5t-70 32t-76.5 10q-80 0 -140 -24t-104.5 -66t-75 -97.5t-51.5 -118.5t-34 -130.5t-22 -131.5q-12 -87 -20.5 -165t-15 -157t-10.5 -164.5t-7 -188.5q52 -2 101.5 -2.5t94.5 -0.5 q88 0 156.5 3.5t117.5 11.5q12 -30 12 -54q0 -25 -14 -39.5t-41.5 -22.5t-69.5 -10.5t-99 -2.5q-51 0 -117.5 1.5t-144.5 4.5q-4 -117 -10.5 -254.5t-16.5 -284t-25 -296.5t-36 -293t-48.5 -273.5t-63.5 -236.5q-58 -168 -130 -279t-152.5 -178t-167.5 -94.5t-174 -27.5 q-77 0 -136.5 17.5t-100 45t-61.5 62t-21 68.5q0 42 31.5 76.5t100.5 49.5q28 -48 59.5 -81t66.5 -53t74 -28.5t82 -8.5q114 0 193.5 72.5t132 205.5t82.5 320.5t45.5 418.5t20 499.5t6.5 562.5q-120 3 -241.5 6t-238.5 3h-60h-29t-29 -1q-4 -119 -10 -259t-15.5 -290 t-23.5 -304t-34.5 -301t-48.5 -281t-65 -243q-59 -171 -133 -285.5t-157.5 -184t-173 -99t-178.5 -29.5q-77 0 -142.5 17t-113.5 46t-75.5 67.5t-27.5 81.5q0 24 11 47.5t30.5 41.5t46 29.5t57.5 11.5q29 -52 64 -88.5t75 -60t83 -34.5t87 -11q115 0 195.5 74.5t135 211 t85.5 329.5t47.5 429.5t22 511t7.5 575.5q-94 -5 -173.5 -11.5t-133.5 -26.5q-4 9 -4 19q0 24 22.5 45t64 36.5t99.5 25.5t129 13zM1244 2064q10 45 23 85t27 78q-33 2 -70 12l-4 11q9 22 15.5 39t10 33t5.5 31t2 32q0 48 -19.5 82.5t-51 56.5t-70 32t-76.5 10 q-79 0 -138.5 -23.5t-103.5 -63.5t-74.5 -94t-51 -115t-33.5 -126.5t-22 -127.5q-12 -85 -20.5 -160.5t-15 -151t-10.5 -155t-7 -172.5q16 1 31 1h30h62q121 0 240.5 -2.5t234.5 -6.5q4 97 10 184t16 170.5t24.5 167t35.5 173.5z" />
<glyph unicode="fh" horiz-adv-x="2606" d="M1335 531q77 253 163.5 429t176 285.5t178.5 158.5t170 49q56 0 108 -21.5t92.5 -66.5t64.5 -116t24 -170q0 -30 -3.5 -81.5t-8.5 -115t-11.5 -133.5t-11.5 -138t-8.5 -129t-3.5 -105q0 -78 6.5 -127t21.5 -77.5t40 -39t61 -10.5q52 0 108 14.5t113 40.5l19 -52 q-36 -29 -91 -59t-115.5 -55t-120.5 -40.5t-106 -15.5q-54 0 -85 29t-46.5 79t-20 117t-4.5 144q0 93 6.5 192t14 190t14 166.5t6.5 121.5q0 111 -44 164.5t-117 53.5q-58 0 -122 -48.5t-127.5 -134t-122 -201.5t-105 -250.5t-77.5 -282.5t-39 -296l-213 -26l-16 1l139 2431 q0 48 -19.5 82t-50 56t-69 32t-75.5 10q-78 0 -136.5 -24t-102 -64.5t-73 -95.5t-50 -117t-33 -128.5t-21.5 -129.5q-12 -87 -20.5 -164t-14.5 -154t-10 -159t-7 -178q46 -2 91.5 -3.5t85.5 -3t72.5 -2.5t54.5 -1q42 0 81 4t65 9q11 -36 11 -57q0 -42 -38 -55t-117 -13 q-54 0 -133 5.5t-176 9.5q-4 -119 -10 -259t-15.5 -290t-23.5 -304.5t-34.5 -301.5t-48.5 -280.5t-65 -242.5q-59 -171 -133 -285.5t-157.5 -184t-173 -99t-178.5 -29.5q-77 0 -142.5 17t-113.5 46t-75.5 67.5t-27.5 81.5q0 24 11 47.5t30.5 41.5t46 29.5t57.5 11.5 q29 -52 64 -88.5t75 -60t83 -34.5t87 -11q115 0 195.5 74.5t135 211t85.5 329.5t47.5 429.5t22 511t7.5 575.5q-94 -1 -173.5 -7t-133.5 -26q-4 9 -4 19q0 24 22.5 45t64 36.5t99.5 25.5t129 13q8 107 15 208t20 200t34 197t57 199q49 138 121.5 236t157 160.5t176 91.5 t178.5 29q57 0 104.5 -10.5t87.5 -28.5q15 32 53 46t83 14q57 0 121 -32q-23 -204 -41 -374.5t-32.5 -316t-26 -271.5t-21 -241.5t-17.5 -225.5t-16 -223.5t-16.5 -236t-18.5 -263.5z" />
<glyph unicode="f&#x125;" horiz-adv-x="2606" d="M1335 531q77 253 163.5 429t176 285.5t178.5 158.5t170 49q56 0 108 -21.5t92.5 -66.5t64.5 -116t24 -170q0 -30 -3.5 -81.5t-8.5 -115t-11.5 -133.5t-11.5 -138t-8.5 -129t-3.5 -105q0 -78 6.5 -127t21.5 -77.5t40 -39t61 -10.5q52 0 108 14.5t113 40.5l19 -52 q-36 -29 -91 -59t-115.5 -55t-120.5 -40.5t-106 -15.5q-54 0 -85 29t-46.5 79t-20 117t-4.5 144q0 93 6.5 192t14 190t14 166.5t6.5 121.5q0 111 -44 164.5t-117 53.5q-58 0 -122 -48.5t-127.5 -134t-122 -201.5t-105 -250.5t-77.5 -282.5t-39 -296l-213 -26l-16 1l139 2431 q0 48 -19.5 82t-50 56t-69 32t-75.5 10q-78 0 -136.5 -24t-102 -64.5t-73 -95.5t-50 -117t-33 -128.5t-21.5 -129.5q-12 -87 -20.5 -164t-14.5 -154t-10 -159t-7 -178q46 -2 91.5 -3.5t85.5 -3t72.5 -2.5t54.5 -1q42 0 81 4t65 9q11 -36 11 -57q0 -42 -38 -55t-117 -13 q-54 0 -133 5.5t-176 9.5q-4 -119 -10 -259t-15.5 -290t-23.5 -304.5t-34.5 -301.5t-48.5 -280.5t-65 -242.5q-59 -171 -133 -285.5t-157.5 -184t-173 -99t-178.5 -29.5q-77 0 -142.5 17t-113.5 46t-75.5 67.5t-27.5 81.5q0 24 11 47.5t30.5 41.5t46 29.5t57.5 11.5 q29 -52 64 -88.5t75 -60t83 -34.5t87 -11q115 0 195.5 74.5t135 211t85.5 329.5t47.5 429.5t22 511t7.5 575.5q-94 -1 -173.5 -7t-133.5 -26q-4 9 -4 19q0 24 22.5 45t64 36.5t99.5 25.5t129 13q8 107 15 208t20 200t34 197t57 199q49 138 121.5 236t157 160.5t176 91.5 t178.5 29q57 0 104.5 -10.5t87.5 -28.5q15 32 53 46t83 14q57 0 121 -32q-23 -204 -41 -374.5t-32.5 -316t-26 -271.5t-21 -241.5t-17.5 -225.5t-16 -223.5t-16.5 -236t-18.5 -263.5zM942 2827q108 85 209 179t188 184q34 34 88 34q18 0 38.5 -3t46.5 -11q30 -46 70.5 -93 t88.5 -94.5t102 -94.5t111 -94l-44 -55q-66 25 -127 56.5t-114.5 64.5t-98.5 65t-80 58h-10q-35 -26 -85.5 -60t-108.5 -69t-118.5 -67t-114.5 -54z" />
<glyph unicode="f&#x127;" horiz-adv-x="2606" d="M1335 531q77 253 163.5 429t176 285.5t178.5 158.5t170 49q56 0 108 -21.5t92.5 -66.5t64.5 -116t24 -170q0 -30 -3.5 -81.5t-8.5 -115t-11.5 -133.5t-11.5 -138t-8.5 -129t-3.5 -105q0 -78 6.5 -127t21.5 -77.5t40 -39t61 -10.5q52 0 108 14.5t113 40.5l19 -52 q-36 -29 -91 -59t-115.5 -55t-120.5 -40.5t-106 -15.5q-54 0 -85 29t-46.5 79t-20 117t-4.5 144q0 93 6.5 192t14 190t14 166.5t6.5 121.5q0 111 -44 164.5t-117 53.5q-58 0 -122 -48.5t-127.5 -134t-122 -201.5t-105 -250.5t-77.5 -282.5t-39 -296l-213 -26l-16 1l110 1920 q-86 -1 -158.5 -6.5t-140.5 -28.5q-1 5 -1.5 9t-0.5 8q0 32 26 55t68.5 38t98 22.5t114.5 9.5q6 105 11.5 205t11.5 199q0 48 -19.5 82t-50 56t-69 32t-75.5 10q-78 0 -136.5 -24t-102 -64.5t-73 -95.5t-50 -117t-33 -128.5t-21.5 -129.5q-12 -87 -20.5 -164t-14.5 -154 t-10 -159t-7 -178q46 -2 91.5 -3.5t85.5 -3t72.5 -2.5t54.5 -1q42 0 81 4t65 9q11 -36 11 -57q0 -42 -38 -55t-117 -13q-54 0 -133 5.5t-176 9.5q-4 -119 -10 -259t-15.5 -290t-23.5 -304.5t-34.5 -301.5t-48.5 -280.5t-65 -242.5q-59 -171 -133 -285.5t-157.5 -184 t-173 -99t-178.5 -29.5q-77 0 -142.5 17t-113.5 46t-75.5 67.5t-27.5 81.5q0 24 11 47.5t30.5 41.5t46 29.5t57.5 11.5q29 -52 64 -88.5t75 -60t83 -34.5t87 -11q115 0 195.5 74.5t135 211t85.5 329.5t47.5 429.5t22 511t7.5 575.5q-94 -1 -173.5 -7t-133.5 -26q-4 9 -4 19 q0 24 22.5 45t64 36.5t99.5 25.5t129 13q8 107 15 208t20 200t34 197t57 199q49 138 121.5 236t157 160.5t176 91.5t178.5 29q57 0 104.5 -10.5t87.5 -28.5q15 32 53 46t83 14q57 0 121 -32q-23 -205 -41 -372.5t-32 -314.5q45 -2 94.5 -3.5t100 -3t98.5 -2.5t90 -1 q54 0 102.5 4t82.5 9q13 -37 13 -57q0 -42 -48 -55t-148 -13q-72 0 -174.5 5t-220.5 10q-13 -130 -23.5 -244t-19 -221t-16.5 -210.5t-15.5 -211t-15 -223.5t-16.5 -248z" />
<glyph unicode="ffh" horiz-adv-x="3454" d="M310 1374q4 91 10 174.5t16 164.5t24.5 162t35.5 168q40 169 115 289t168.5 196.5t197 111.5t202.5 35q75 0 136.5 -16t109 -43t80.5 -63t51 -76q51 57 107.5 98t115.5 68t119 39.5t119 12.5q57 0 104.5 -10.5t87.5 -28.5q15 32 53 46t83 14q57 0 121 -32 q-23 -204 -41 -374.5t-32.5 -316t-26 -271.5t-21 -241.5t-17.5 -225.5t-16 -223.5t-16.5 -236t-18.5 -263.5l6 -1q77 253 163.5 429t176 285.5t178.5 158.5t170 49q56 0 108 -21.5t92.5 -66.5t64.5 -116t24 -170q0 -30 -3.5 -81.5t-8.5 -115t-11.5 -133.5t-11.5 -138 t-8.5 -129t-3.5 -105q0 -78 6.5 -127t21.5 -77.5t40 -39t61 -10.5q52 0 108 14.5t113 40.5l19 -52q-36 -29 -91 -59t-115.5 -55t-120.5 -40.5t-106 -15.5q-54 0 -85 29t-46.5 79t-20 117t-4.5 144q0 93 6.5 192t14 190t14 166.5t6.5 121.5q0 111 -44 164.5t-117 53.5 q-57 0 -121.5 -48.5t-127.5 -134t-121.5 -201.5t-105.5 -250.5t-78 -282.5t-39 -296l-213 -26l-16 1l139 2430q0 48 -19 82.5t-50 56.5t-69 32t-76 10q-78 0 -136.5 -24t-102 -64.5t-73 -95.5t-50 -117t-33 -128.5t-21.5 -129.5q-12 -86 -20.5 -163t-14.5 -155t-10 -162.5 t-7 -184.5q49 -1 96.5 -1.5t90.5 -0.5q87 0 155 3.5t116 11.5q2 -15 3.5 -29t1.5 -25q0 -25 -14 -39.5t-41.5 -22.5t-69.5 -10.5t-97 -2.5q-48 0 -110 1.5t-135 3.5q-4 -117 -10.5 -254.5t-16.5 -284t-25 -296.5t-36 -293t-48.5 -273.5t-63.5 -236.5q-58 -168 -130 -279 t-152.5 -178t-167.5 -94.5t-174 -27.5q-77 0 -136.5 17.5t-100 45t-61.5 62t-21 68.5q0 42 31.5 76.5t100.5 49.5q28 -48 59.5 -81t66.5 -53t74 -28.5t82 -8.5q114 0 193.5 72.5t132 205.5t82.5 320.5t45.5 418.5t20 499.5t6.5 562.5q-120 4 -241.5 7t-238.5 3h-60h-29 t-29 -1q-4 -119 -10 -259t-15.5 -290t-23.5 -304t-34.5 -301t-48.5 -281t-65 -243q-59 -171 -133 -285.5t-157.5 -184t-173 -99t-178.5 -29.5q-77 0 -142.5 17t-113.5 46t-75.5 67.5t-27.5 81.5q0 24 11 47.5t30.5 41.5t46 29.5t57.5 11.5q29 -52 64 -88.5t75 -60t83 -34.5 t87 -11q115 0 195.5 74.5t135 211t85.5 329.5t47.5 429.5t22 511t7.5 575.5q-94 -5 -173.5 -11.5t-133.5 -26.5q-4 9 -4 19q0 24 22.5 45t64 36.5t99.5 25.5t129 13zM1220 2250q9 22 15.5 39t10 33t5.5 31t2 32q0 48 -19.5 82.5t-51 56.5t-70 32t-76.5 10 q-79 0 -138.5 -23.5t-103.5 -63.5t-74.5 -94t-51 -115t-33.5 -126.5t-22 -127.5q-12 -85 -20.5 -160.5t-15 -151t-10.5 -155t-7 -172.5q16 1 31 1h30h62q121 0 240.5 -2.5t234.5 -6.5q6 110 13 212.5t20 201.5t35 196.5t58 198.5q5 13 9.5 25t9.5 24q-37 0 -79 12z" />
<glyph unicode="ff&#x125;" horiz-adv-x="3454" d="M310 1374q4 91 10 174.5t16 164.5t24.5 162t35.5 168q40 169 115 289t168.5 196.5t197 111.5t202.5 35q75 0 136.5 -16t109 -43t80.5 -63t51 -76q51 57 107.5 98t115.5 68t119 39.5t119 12.5q57 0 104.5 -10.5t87.5 -28.5q15 32 53 46t83 14q57 0 121 -32 q-23 -204 -41 -374.5t-32.5 -316t-26 -271.5t-21 -241.5t-17.5 -225.5t-16 -223.5t-16.5 -236t-18.5 -263.5l6 -1q77 253 163.5 429t176 285.5t178.5 158.5t170 49q56 0 108 -21.5t92.5 -66.5t64.5 -116t24 -170q0 -30 -3.5 -81.5t-8.5 -115t-11.5 -133.5t-11.5 -138 t-8.5 -129t-3.5 -105q0 -78 6.5 -127t21.5 -77.5t40 -39t61 -10.5q52 0 108 14.5t113 40.5l19 -52q-36 -29 -91 -59t-115.5 -55t-120.5 -40.5t-106 -15.5q-54 0 -85 29t-46.5 79t-20 117t-4.5 144q0 93 6.5 192t14 190t14 166.5t6.5 121.5q0 111 -44 164.5t-117 53.5 q-57 0 -121.5 -48.5t-127.5 -134t-121.5 -201.5t-105.5 -250.5t-78 -282.5t-39 -296l-213 -26l-16 1l139 2430q0 48 -19 82.5t-50 56.5t-69 32t-76 10q-78 0 -136.5 -24t-102 -64.5t-73 -95.5t-50 -117t-33 -128.5t-21.5 -129.5q-12 -86 -20.5 -163t-14.5 -155t-10 -162.5 t-7 -184.5q49 -1 96.5 -1.5t90.5 -0.5q87 0 155 3.5t116 11.5q2 -15 3.5 -29t1.5 -25q0 -25 -14 -39.5t-41.5 -22.5t-69.5 -10.5t-97 -2.5q-48 0 -110 1.5t-135 3.5q-4 -117 -10.5 -254.5t-16.5 -284t-25 -296.5t-36 -293t-48.5 -273.5t-63.5 -236.5q-58 -168 -130 -279 t-152.5 -178t-167.5 -94.5t-174 -27.5q-77 0 -136.5 17.5t-100 45t-61.5 62t-21 68.5q0 42 31.5 76.5t100.5 49.5q28 -48 59.5 -81t66.5 -53t74 -28.5t82 -8.5q114 0 193.5 72.5t132 205.5t82.5 320.5t45.5 418.5t20 499.5t6.5 562.5q-120 4 -241.5 7t-238.5 3h-60h-29 t-29 -1q-4 -119 -10 -259t-15.5 -290t-23.5 -304t-34.5 -301t-48.5 -281t-65 -243q-59 -171 -133 -285.5t-157.5 -184t-173 -99t-178.5 -29.5q-77 0 -142.5 17t-113.5 46t-75.5 67.5t-27.5 81.5q0 24 11 47.5t30.5 41.5t46 29.5t57.5 11.5q29 -52 64 -88.5t75 -60t83 -34.5 t87 -11q115 0 195.5 74.5t135 211t85.5 329.5t47.5 429.5t22 511t7.5 575.5q-94 -5 -173.5 -11.5t-133.5 -26.5q-4 9 -4 19q0 24 22.5 45t64 36.5t99.5 25.5t129 13zM1220 2250q9 22 15.5 39t10 33t5.5 31t2 32q0 48 -19.5 82.5t-51 56.5t-70 32t-76.5 10 q-79 0 -138.5 -23.5t-103.5 -63.5t-74.5 -94t-51 -115t-33.5 -126.5t-22 -127.5q-12 -85 -20.5 -160.5t-15 -151t-10.5 -155t-7 -172.5q16 1 31 1h30h62q121 0 240.5 -2.5t234.5 -6.5q6 110 13 212.5t20 201.5t35 196.5t58 198.5q5 13 9.5 25t9.5 24q-37 0 -79 12z M1790 2827q108 85 209 179t188 184q34 34 88 34q18 0 38.5 -3t46.5 -11q30 -46 70.5 -93t88.5 -94.5t102 -94.5t111 -94l-44 -55q-66 25 -127 56.5t-114.5 64.5t-98.5 65t-80 58h-10q-35 -26 -85.5 -60t-108.5 -69t-118.5 -67t-114.5 -54z" />
<glyph unicode="ff&#x127;" horiz-adv-x="3454" d="M310 1374q4 91 10 174.5t16 164.5t24.5 162t35.5 168q40 169 115 289t168.5 196.5t197 111.5t202.5 35q75 0 136.5 -16t109 -43t80.5 -63t51 -76q51 57 107.5 98t115.5 68t119 39.5t119 12.5q57 0 104.5 -10.5t87.5 -28.5q15 32 53 46t83 14q57 0 121 -32 q-23 -205 -41 -372.5t-32 -314.5q45 -2 94.5 -3.5t100 -3t98.5 -2.5t90 -1q54 0 102.5 4t82.5 9q13 -37 13 -57q0 -42 -48 -55t-148 -13q-72 0 -173.5 5t-221.5 10q-13 -130 -23.5 -244t-19 -221t-16.5 -210.5t-15.5 -211t-15 -223.5t-16.5 -248l6 -1q77 253 163.5 429 t176 285.5t178.5 158.5t170 49q56 0 108 -21.5t92.5 -66.5t64.5 -116t24 -170q0 -30 -3.5 -81.5t-8.5 -115t-11.5 -133.5t-11.5 -138t-8.5 -129t-3.5 -105q0 -78 6.5 -127t21.5 -77.5t40 -39t61 -10.5q52 0 108 14.5t113 40.5l19 -52q-36 -29 -91 -59t-115.5 -55 t-120.5 -40.5t-106 -15.5q-54 0 -85 29t-46.5 79t-20 117t-4.5 144q0 93 6.5 192t14 190t14 166.5t6.5 121.5q0 111 -44 164.5t-117 53.5q-57 0 -121.5 -48.5t-127.5 -134t-121.5 -201.5t-105.5 -250.5t-78 -282.5t-39 -296l-213 -26l-16 1l110 1920q-86 -1 -158.5 -6.5 t-140.5 -28.5q-1 5 -1.5 9t-0.5 8q0 32 26 55t68.5 38t98 22.5t114.5 9.5q6 105 11.5 205.5t11.5 197.5q0 48 -19 82.5t-50 56.5t-69 32t-76 10q-78 0 -136.5 -24t-102 -64.5t-73 -95.5t-50 -117t-33 -128.5t-21.5 -129.5q-12 -86 -20.5 -163t-14.5 -155t-10 -162.5 t-7 -184.5q49 -1 96.5 -1.5t90.5 -0.5q87 0 155 3.5t116 11.5q2 -15 3.5 -29t1.5 -25q0 -25 -14 -39.5t-41.5 -22.5t-69.5 -10.5t-97 -2.5q-48 0 -110 1.5t-135 3.5q-4 -117 -10.5 -254.5t-16.5 -284t-25 -296.5t-36 -293t-48.5 -273.5t-63.5 -236.5q-58 -168 -130 -279 t-152.5 -178t-167.5 -94.5t-174 -27.5q-77 0 -136.5 17.5t-100 45t-61.5 62t-21 68.5q0 42 31.5 76.5t100.5 49.5q28 -48 59.5 -81t66.5 -53t74 -28.5t82 -8.5q114 0 193.5 72.5t132 205.5t82.5 320.5t45.5 418.5t20 499.5t6.5 562.5q-120 4 -241.5 7t-238.5 3h-60h-29 t-29 -1q-4 -119 -10 -259t-15.5 -290t-23.5 -304t-34.5 -301t-48.5 -281t-65 -243q-59 -171 -133 -285.5t-157.5 -184t-173 -99t-178.5 -29.5q-77 0 -142.5 17t-113.5 46t-75.5 67.5t-27.5 81.5q0 24 11 47.5t30.5 41.5t46 29.5t57.5 11.5q29 -52 64 -88.5t75 -60t83 -34.5 t87 -11q115 0 195.5 74.5t135 211t85.5 329.5t47.5 429.5t22 511t7.5 575.5q-94 -5 -173.5 -11.5t-133.5 -26.5q-4 9 -4 19q0 24 22.5 45t64 36.5t99.5 25.5t129 13zM1220 2250q9 22 15.5 39t10 33t5.5 31t2 32q0 48 -19.5 82.5t-51 56.5t-70 32t-76.5 10 q-79 0 -138.5 -23.5t-103.5 -63.5t-74.5 -94t-51 -115t-33.5 -126.5t-22 -127.5q-12 -85 -20.5 -160.5t-15 -151t-10.5 -155t-7 -172.5q16 1 31 1h30h62q121 0 240.5 -2.5t234.5 -6.5q6 110 13 212.5t20 201.5t35 196.5t58 198.5q5 13 9.5 25t9.5 24q-37 0 -79 12z" />
<glyph unicode="&#xfb01;" horiz-adv-x="1656" d="M1206 2242q23 49 34 91.5t11 79.5q0 46 -15.5 82t-43.5 61t-67 37.5t-85 12.5q-80 0 -140 -24t-104.5 -66t-75 -97.5t-51.5 -118.5t-34 -130.5t-22 -131.5q-12 -88 -20.5 -166.5t-15 -157t-10.5 -162t-7 -180.5q75 -2 153.5 -6.5t166.5 -4.5q106 0 229.5 12t274.5 48 q-16 -119 -27.5 -234t-19 -222t-11 -203t-3.5 -176q0 -105 3 -180.5t10 -127t17.5 -82t26 -47t36 -21.5t46.5 -5q48 0 103.5 14.5t112.5 40.5l19 -52q-36 -29 -90.5 -59t-114.5 -55t-117.5 -40.5t-99.5 -15.5q-28 0 -51 5t-41.5 22.5t-33 53t-24 96t-14.5 151.5t-5 220 q0 117 3.5 268t13.5 335q2 42 5.5 81.5t8.5 90.5l-5 3q-66 -17 -134 -23t-137 -6q-78 0 -153.5 5t-150.5 7q-4 -119 -10 -259t-15.5 -290t-23.5 -304.5t-34.5 -301.5t-48.5 -280.5t-65 -242.5q-59 -171 -133 -285.5t-157.5 -184t-173 -99t-178.5 -29.5q-77 0 -142.5 17 t-113.5 46t-75.5 67.5t-27.5 81.5q0 24 11 47.5t30.5 41.5t46 29.5t57.5 11.5q29 -52 64 -88.5t75 -60t83 -34.5t87 -11q115 0 195.5 74.5t135 211t85.5 329.5t47.5 429.5t22 511t7.5 575.5q-94 -1 -173.5 -7t-133.5 -26q-4 9 -4 19q0 24 22.5 45t64 36.5t99.5 25.5t129 13 q4 94 10 179.5t16 169t24.5 167.5t35.5 174q27 117 70 210.5t97.5 166t118 124.5t130.5 85.5t136 49t135 15.5q95 0 171.5 -25.5t130.5 -68t83 -99t29 -118.5q0 -49 -14.5 -87t-39.5 -64.5t-57 -40t-68 -13.5q-26 0 -54 7.5t-54 23.5z" />
<glyph unicode="f&#x12f;" horiz-adv-x="1656" d="M1712 -527q-49 -82 -105 -142t-114.5 -99.5t-117.5 -58.5t-113 -19q-60 0 -112 20t-90.5 57t-60.5 90t-22 120q0 57 18 118.5t56.5 127t97.5 133t140 135.5l-1 4l-13 -3q-28 0 -51 5t-41.5 22.5t-33 53t-24 96t-14.5 151.5t-5 220q0 117 3.5 268t13.5 335q2 42 5.5 81.5 t8.5 90.5l-5 3q-66 -17 -134 -23t-137 -6q-78 0 -153.5 5t-150.5 7q-4 -119 -10 -259t-15.5 -290t-23.5 -304.5t-34.5 -301.5t-48.5 -280.5t-65 -242.5q-59 -171 -133 -285.5t-157.5 -184t-173 -99t-178.5 -29.5q-77 0 -142.5 17t-113.5 46t-75.5 67.5t-27.5 81.5 q0 24 11 47.5t30.5 41.5t46 29.5t57.5 11.5q29 -52 64 -88.5t75 -60t83 -34.5t87 -11q115 0 195.5 74.5t135 211t85.5 329.5t47.5 429.5t22 511t7.5 575.5q-94 -1 -173.5 -7t-133.5 -26q-4 9 -4 19q0 24 22.5 45t64 36.5t99.5 25.5t129 13q4 94 10 179.5t16 169t24.5 167.5 t35.5 174q27 117 70 210.5t97.5 166t118 124.5t130.5 85.5t136 49t135 15.5q95 0 171.5 -25.5t130.5 -68t83 -99t29 -118.5q0 -49 -14.5 -87t-39.5 -64.5t-57 -40t-68 -13.5q-26 0 -54 7.5t-54 23.5l-4 12q23 49 34 91.5t11 79.5q0 46 -15.5 82t-43.5 61t-67 37.5t-85 12.5 q-80 0 -140 -24t-104.5 -66t-75 -97.5t-51.5 -118.5t-34 -130.5t-22 -131.5q-12 -88 -20.5 -166.5t-15 -157t-10.5 -162t-7 -180.5q75 -2 153.5 -6.5t166.5 -4.5q106 0 229.5 12t274.5 48q-16 -119 -27.5 -234t-19 -222t-11 -203t-3.5 -176q0 -105 3 -180.5t10 -127 t17.5 -82t26 -47t36 -21.5t46.5 -5q48 0 103.5 14.5t112.5 40.5l19 -52q-9 -8 -28 -20.5t-41.5 -26t-45.5 -25.5t-39 -19q-82 -38 -145 -96.5t-106 -126.5t-65.5 -140.5t-22.5 -138.5q0 -42 10.5 -78t32 -62.5t53.5 -41.5t75 -15q69 0 146 44t143 132z" />
<glyph unicode="f&#x133;" horiz-adv-x="2384" d="M2055 1856q-34 0 -61 14.5t-46 38.5t-29 54.5t-10 62.5q0 46 15 80.5t38.5 58t52 35.5t56.5 12q34 0 61 -13t46 -34.5t29.5 -50.5t10.5 -62q0 -35 -11.5 -70t-33 -63t-51.5 -45.5t-67 -17.5zM2164 1407q-3 -149 -6.5 -306.5t-10.5 -317.5t-18 -319.5t-29 -312t-43.5 -295 t-61.5 -268.5q-48 -171 -122 -286t-160.5 -184.5t-179 -99t-177.5 -29.5q-77 0 -141.5 17.5t-111 47.5t-72.5 69t-26 82q0 24 12 49t32.5 45.5t48 33.5t58.5 13q58 -104 136.5 -148t167.5 -44q64 0 120.5 22.5t104.5 79.5q75 87 119.5 262t67.5 437t30.5 610.5t8.5 783.5 q0 28 13 45.5t32 27t41.5 13t40.5 3.5q67 0 126 -31zM1206 2242q23 49 34 91.5t11 79.5q0 46 -15.5 82t-43.5 61t-67 37.5t-85 12.5q-80 0 -140 -24t-104.5 -66t-75 -97.5t-51.5 -118.5t-34 -130.5t-22 -131.5q-12 -88 -20.5 -166.5t-15 -157t-10.5 -162t-7 -180.5 q75 -2 153.5 -6.5t166.5 -4.5q106 0 229.5 12t274.5 48q-16 -119 -27.5 -234t-19 -222t-11 -203t-3.5 -176q0 -105 3 -180.5t10 -127t17.5 -82t26 -47t36 -21.5t46.5 -5q48 0 103.5 14.5t112.5 40.5l19 -52q-36 -29 -90.5 -59t-114.5 -55t-117.5 -40.5t-99.5 -15.5 q-28 0 -51 5t-41.5 22.5t-33 53t-24 96t-14.5 151.5t-5 220q0 117 3.5 268t13.5 335q2 42 5.5 81.5t8.5 90.5l-5 3q-66 -17 -134 -23t-137 -6q-78 0 -153.5 5t-150.5 7q-4 -119 -10 -259t-15.5 -290t-23.5 -304.5t-34.5 -301.5t-48.5 -280.5t-65 -242.5 q-59 -171 -133 -285.5t-157.5 -184t-173 -99t-178.5 -29.5q-77 0 -142.5 17t-113.5 46t-75.5 67.5t-27.5 81.5q0 24 11 47.5t30.5 41.5t46 29.5t57.5 11.5q29 -52 64 -88.5t75 -60t83 -34.5t87 -11q115 0 195.5 74.5t135 211t85.5 329.5t47.5 429.5t22 511t7.5 575.5 q-94 -1 -173.5 -7t-133.5 -26q-4 9 -4 19q0 24 22.5 45t64 36.5t99.5 25.5t129 13q4 94 10 179.5t16 169t24.5 167.5t35.5 174q27 117 70 210.5t97.5 166t118 124.5t130.5 85.5t136 49t135 15.5q95 0 171.5 -25.5t130.5 -68t83 -99t29 -118.5q0 -49 -14.5 -87t-39.5 -64.5 t-57 -40t-68 -13.5q-26 0 -54 7.5t-54 23.5z" />
<glyph unicode="&#xfb03;" horiz-adv-x="2504" d="M310 1374q4 91 10 174.5t16 164.5t24.5 162t35.5 168q40 169 115 289t168.5 196.5t197 111.5t202.5 35q73 0 133 -14.5t106.5 -40t80 -59.5t52.5 -73q52 60 111 102.5t121 70.5t125 41t123 13q95 0 171.5 -25.5t130.5 -68t83 -99t29 -118.5q0 -49 -14.5 -87t-39.5 -64.5 t-57 -40t-68 -13.5q-26 0 -54 7.5t-54 23.5l-4 12q23 49 34 91.5t11 79.5q0 46 -15.5 82t-43.5 61t-67 37.5t-85 12.5q-80 0 -140 -24t-104.5 -66t-75 -97.5t-51.5 -118.5t-34 -130.5t-22 -131.5q-12 -88 -20.5 -167.5t-15 -159t-10.5 -163.5t-7 -181q75 -2 153.5 -4 t166.5 -2q106 0 229.5 12t274.5 48q-16 -119 -27.5 -234t-19 -222t-11 -203t-3.5 -176q0 -105 3 -180.5t10 -127t17.5 -82t26 -47t36 -21.5t46.5 -5q48 0 103.5 14.5t112.5 40.5l19 -52q-36 -29 -90.5 -59t-114.5 -55t-117.5 -40.5t-99.5 -15.5q-28 0 -51 5t-41.5 22.5 t-33 53t-24 96t-14.5 151.5t-5 220q0 117 3.5 268t13.5 335q2 42 5.5 81.5t8.5 90.5l-5 3q-66 -17 -134 -23t-137 -6q-78 0 -153.5 2.5t-150.5 4.5q-4 -117 -10.5 -254.5t-16.5 -284t-25 -296.5t-36 -293t-48.5 -273.5t-63.5 -236.5q-58 -168 -130 -279t-152.5 -178 t-167.5 -94.5t-174 -27.5q-77 0 -136.5 17.5t-100 45t-61.5 62t-21 68.5q0 42 31.5 76.5t100.5 49.5q28 -48 59.5 -81t66.5 -53t74 -28.5t82 -8.5q114 0 193.5 72.5t132 205.5t82.5 320.5t45.5 418.5t20 499.5t6.5 562.5q-121 -2 -242.5 0t-238.5 2h-60h-29t-29 -1 q-4 -119 -10 -259t-15.5 -290t-23.5 -304.5t-34.5 -301.5t-48.5 -280.5t-65 -242.5q-59 -171 -133 -285.5t-157.5 -184t-173 -99t-178.5 -29.5q-77 0 -142.5 17t-113.5 46t-75.5 67.5t-27.5 81.5q0 24 11 47.5t30.5 41.5t46 29.5t57.5 11.5q29 -52 64 -88.5t75 -60t83 -34.5 t87 -11q115 0 195.5 74.5t135 211t85.5 329.5t47.5 429.5t22 511t7.5 575.5q-94 -5 -173.5 -12t-133.5 -27q-4 9 -4 19q0 24 22.5 45t64 36.5t99.5 25.5t129 13zM1220 2250q9 22 15.5 39t10 33t5.5 31t2 32q0 48 -19.5 82.5t-51 56.5t-70 32t-76.5 10q-79 0 -138.5 -23.5 t-103.5 -63.5t-74.5 -94t-51 -115t-33.5 -126.5t-22 -127.5q-12 -85 -20.5 -160.5t-15 -150.5t-10.5 -154.5t-7 -172.5q16 1 31 1h30h62q121 0 240.5 -2t234.5 -5q4 95 10 181t16 169.5t24.5 167.5t35.5 174q10 45 23 85t27 78q-33 2 -70 12z" />
<glyph unicode="ff&#x12f;" horiz-adv-x="2504" d="M310 1374q4 91 10 174.5t16 164.5t24.5 162t35.5 168q40 169 115 289t168.5 196.5t197 111.5t202.5 35q73 0 133 -14.5t106.5 -40t80 -59.5t52.5 -73q52 60 111 102.5t121 70.5t125 41t123 13q95 0 171.5 -25.5t130.5 -68t83 -99t29 -118.5q0 -49 -14.5 -87t-39.5 -64.5 t-57 -40t-68 -13.5q-26 0 -54 7.5t-54 23.5l-4 12q23 49 34 91.5t11 79.5q0 46 -15.5 82t-43.5 61t-67 37.5t-85 12.5q-80 0 -140 -24t-104.5 -66t-75 -97.5t-51.5 -118.5t-34 -130.5t-22 -131.5q-12 -88 -20.5 -167.5t-15 -159t-10.5 -163.5t-7 -181q75 -2 153.5 -4 t166.5 -2q106 0 229.5 12t274.5 48q-16 -119 -27.5 -234t-19 -222t-11 -203t-3.5 -176q0 -105 3 -180.5t10 -127t17.5 -82t26 -47t36 -21.5t46.5 -5q48 0 103.5 14.5t112.5 40.5l19 -52q-9 -8 -28 -20.5t-41.5 -26t-45.5 -25.5t-39 -19q-82 -38 -145 -96.5t-106 -126.5 t-65.5 -140.5t-22.5 -138.5q0 -42 10.5 -78t32 -62.5t53.5 -41.5t75 -15q69 0 146 44t143 132l48 -39q-49 -82 -105 -142t-114.5 -99.5t-117.5 -58.5t-113 -19q-60 0 -112 20t-90.5 57t-60.5 90t-22 120q0 57 18 118.5t56.5 127t97.5 133t140 135.5l-1 4l-13 -3q-28 0 -51 5 t-41.5 22.5t-33 53t-24 96t-14.5 151.5t-5 220q0 117 3.5 265.5t13.5 332.5q2 42 5.5 84t8.5 93l-5 3q-66 -17 -134 -23t-137 -6q-78 0 -153.5 2.5t-150.5 4.5q-4 -117 -10.5 -254.5t-16.5 -284t-25 -296.5t-36 -293t-48.5 -273.5t-63.5 -236.5q-58 -168 -130 -279 t-152.5 -178t-167.5 -94.5t-174 -27.5q-77 0 -136.5 17.5t-100 45t-61.5 62t-21 68.5q0 42 31.5 76.5t100.5 49.5q28 -48 59.5 -81t66.5 -53t74 -28.5t82 -8.5q114 0 193.5 72.5t132 205.5t82.5 320.5t45.5 418.5t20 499.5t6.5 562.5q-121 -2 -242.5 0t-238.5 2h-60h-29 t-29 -1q-4 -119 -10 -259t-15.5 -290t-23.5 -304.5t-34.5 -301.5t-48.5 -280.5t-65 -242.5q-59 -171 -133 -285.5t-157.5 -184t-173 -99t-178.5 -29.5q-77 0 -142.5 17t-113.5 46t-75.5 67.5t-27.5 81.5q0 24 11 47.5t30.5 41.5t46 29.5t57.5 11.5q29 -52 64 -88.5t75 -60 t83 -34.5t87 -11q115 0 195.5 74.5t135 211t85.5 329.5t47.5 429.5t22 511t7.5 575.5q-94 -5 -173.5 -12t-133.5 -27q-4 9 -4 19q0 24 22.5 45t64 36.5t99.5 25.5t129 13zM1220 2250q9 22 15.5 39t10 33t5.5 31t2 32q0 48 -19.5 82.5t-51 56.5t-70 32t-76.5 10 q-79 0 -138.5 -23.5t-103.5 -63.5t-74.5 -94t-51 -115t-33.5 -126.5t-22 -127.5q-12 -85 -20.5 -160.5t-15 -150.5t-10.5 -154.5t-7 -172.5q16 1 31 1h30h62q121 0 240.5 -2t234.5 -5q4 95 10 181t16 169.5t24.5 167.5t35.5 174q10 45 23 85t27 78q-33 2 -70 12z" />
<glyph unicode="ff&#x133;" horiz-adv-x="3231" d="M310 1374q4 91 10 174.5t16 164.5t24.5 162t35.5 168q40 169 115 289t168.5 196.5t197 111.5t202.5 35q73 0 133 -14.5t106.5 -40t80 -59.5t52.5 -73q52 60 111 102.5t121 70.5t125 41t123 13q95 0 171.5 -25.5t130.5 -68t83 -99t29 -118.5q0 -49 -14.5 -87t-39.5 -64.5 t-57 -40t-68 -13.5q-26 0 -54 7.5t-54 23.5l-4 12q23 49 34 91.5t11 79.5q0 46 -15.5 82t-43.5 61t-67 37.5t-85 12.5q-80 0 -140 -24t-104.5 -66t-75 -97.5t-51.5 -118.5t-34 -130.5t-22 -131.5q-12 -88 -20.5 -167.5t-15 -159t-10.5 -163.5t-7 -181q75 -2 153.5 -4 t166.5 -2q106 0 229.5 12t274.5 48q-16 -119 -27.5 -234t-19 -222t-11 -203t-3.5 -176q0 -105 3 -180.5t10 -127t17.5 -82t26 -47t36 -21.5t46.5 -5q48 0 103.5 14.5t112.5 40.5l19 -52q-36 -29 -90.5 -59t-114.5 -55t-117.5 -40.5t-99.5 -15.5q-28 0 -51 5t-41.5 22.5 t-33 53t-24 96t-14.5 151.5t-5 220q0 117 3.5 268t13.5 335q2 42 5.5 81.5t8.5 90.5l-5 3q-66 -17 -134 -23t-137 -6q-78 0 -153.5 2.5t-150.5 4.5q-4 -117 -10.5 -254.5t-16.5 -284t-25 -296.5t-36 -293t-48.5 -273.5t-63.5 -236.5q-58 -168 -130 -279t-152.5 -178 t-167.5 -94.5t-174 -27.5q-77 0 -136.5 17.5t-100 45t-61.5 62t-21 68.5q0 42 31.5 76.5t100.5 49.5q28 -48 59.5 -81t66.5 -53t74 -28.5t82 -8.5q114 0 193.5 72.5t132 205.5t82.5 320.5t45.5 418.5t20 499.5t6.5 562.5q-121 -2 -242.5 0t-238.5 2h-60h-29t-29 -1 q-4 -119 -10 -259t-15.5 -290t-23.5 -304.5t-34.5 -301.5t-48.5 -280.5t-65 -242.5q-59 -171 -133 -285.5t-157.5 -184t-173 -99t-178.5 -29.5q-77 0 -142.5 17t-113.5 46t-75.5 67.5t-27.5 81.5q0 24 11 47.5t30.5 41.5t46 29.5t57.5 11.5q29 -52 64 -88.5t75 -60t83 -34.5 t87 -11q115 0 195.5 74.5t135 211t85.5 329.5t47.5 429.5t22 511t7.5 575.5q-94 -5 -173.5 -12t-133.5 -27q-4 9 -4 19q0 24 22.5 45t64 36.5t99.5 25.5t129 13zM1220 2250q9 22 15.5 39t10 33t5.5 31t2 32q0 48 -19.5 82.5t-51 56.5t-70 32t-76.5 10q-79 0 -138.5 -23.5 t-103.5 -63.5t-74.5 -94t-51 -115t-33.5 -126.5t-22 -127.5q-12 -85 -20.5 -160.5t-15 -150.5t-10.5 -154.5t-7 -172.5q16 1 31 1h30h62q121 0 240.5 -2t234.5 -5q4 95 10 181t16 169.5t24.5 167.5t35.5 174q10 45 23 85t27 78q-33 2 -70 12zM2902 1856q-34 0 -61 14.5 t-46 38.5t-29 54.5t-10 62.5q0 46 15 80.5t38.5 58t52 35.5t56.5 12q34 0 61 -13t46 -34.5t29.5 -50.5t10.5 -62q0 -35 -11.5 -70t-33 -63t-51.5 -45.5t-67 -17.5zM3011 1407q-3 -149 -6.5 -306.5t-10.5 -317.5t-18 -319.5t-29 -312t-43.5 -295t-61.5 -268.5 q-48 -171 -122 -286t-160.5 -184.5t-179 -99t-177.5 -29.5q-77 0 -141.5 17.5t-111 47.5t-72.5 69t-26 82q0 24 12 49t32.5 45.5t48 33.5t58.5 13q58 -104 136.5 -148t167.5 -44q64 0 120.5 22.5t104.5 79.5q75 87 119.5 262t67.5 437t30.5 610.5t8.5 783.5q0 28 13 45.5 t32 27t41.5 13t40.5 3.5q67 0 126 -31z" />
<glyph unicode="fj" horiz-adv-x="1603" d="M310 1374q4 94 10 179.5t16 169t24.5 167.5t35.5 174q27 117 69.5 210.5t96 166t116 124.5t129 85t134.5 49t133 16q93 0 168.5 -25.5t129 -68t82 -99t28.5 -118.5q0 -49 -14.5 -87t-39.5 -64.5t-57 -40t-68 -13.5q-26 0 -54 7.5t-54 23.5l-4 12q23 49 34 91.5t11 79.5 q0 46 -15 82t-42.5 61t-65.5 37.5t-83 12.5q-78 0 -136.5 -24t-102 -66t-73.5 -97.5t-50.5 -118.5t-33 -130.5t-21.5 -131.5q-12 -88 -20.5 -166.5t-15 -157t-10.5 -162t-7 -180.5q75 -2 153.5 -6.5t166.5 -4.5q106 0 229.5 12t274.5 48q-3 -152 -6.5 -310t-10.5 -316 t-17.5 -314.5t-28.5 -306t-43.5 -289t-61.5 -264.5q-48 -169 -122.5 -282t-161.5 -180.5t-178.5 -95.5t-173.5 -28q-75 0 -134.5 15t-101 41t-63.5 61t-22 76q0 25 9 50.5t26.5 46.5t41.5 34t54 13q29 -52 61.5 -87t68.5 -56.5t76.5 -30.5t84.5 -9q63 0 119.5 22.5 t104.5 77.5q72 85 116 252t68.5 416t33.5 579.5t10 742.5l-5 3q-66 -17 -132 -23t-135 -6q-78 0 -153.5 5t-150.5 7q-4 -119 -10 -259t-15.5 -290t-23.5 -304.5t-34.5 -301.5t-48.5 -280.5t-65 -242.5q-59 -171 -133 -285.5t-157.5 -184t-173 -99t-178.5 -29.5 q-77 0 -142.5 17t-113.5 46t-75.5 67.5t-27.5 81.5q0 24 11 47.5t30.5 41.5t46 29.5t57.5 11.5q29 -52 64 -88.5t75 -60t83 -34.5t87 -11q115 0 195.5 74.5t135 211t85.5 329.5t47.5 429.5t22 511t7.5 575.5q-94 -1 -173.5 -7t-133.5 -26q-4 9 -4 18q0 24 22.5 45t64 37 t99.5 26t129 13z" />
<glyph unicode="ffj" horiz-adv-x="2451" d="M310 1374q4 91 10 174.5t16 164.5t24.5 162t35.5 168q40 169 115 289t168.5 196.5t197 111.5t202.5 35q72 0 131.5 -14.5t106 -39.5t80 -59t53.5 -72q52 59 110 101.5t119 70t122.5 40.5t120.5 13q93 0 168.5 -25.5t129 -68t82 -99t28.5 -118.5q0 -49 -14.5 -87 t-39.5 -64.5t-57 -40t-68 -13.5q-26 0 -54 7.5t-54 23.5l-4 12q23 49 34 91.5t11 79.5q0 46 -15 82t-42.5 61t-65.5 37.5t-83 12.5q-78 0 -136.5 -24t-102 -66t-73.5 -97.5t-50.5 -118.5t-33 -130.5t-21.5 -131.5q-12 -88 -20.5 -167.5t-15 -159t-10.5 -163.5t-7 -181 q75 -2 153.5 -4t166.5 -2q106 0 229.5 12t274.5 48q-3 -152 -6.5 -310t-10.5 -316t-17.5 -314.5t-28.5 -306t-43.5 -289t-61.5 -264.5q-48 -169 -122.5 -282t-161.5 -180.5t-178.5 -95.5t-173.5 -28q-75 0 -134.5 15t-101 41t-63.5 61t-22 76q0 25 9 50.5t26.5 46.5t41.5 34 t54 13q29 -52 61.5 -87t68.5 -56.5t76.5 -30.5t84.5 -9q63 0 119.5 22.5t104.5 77.5q72 85 116 252t68.5 416t33.5 579.5t10 742.5l-5 3q-66 -17 -132 -23t-135 -6q-78 0 -153.5 2.5t-150.5 4.5q-4 -118 -10 -255.5t-16.5 -284.5t-25 -297.5t-36 -294.5t-49.5 -275.5 t-65 -239.5q-58 -170 -130 -284.5t-153 -184.5t-167.5 -100t-174.5 -30q-84 0 -144.5 18.5t-99.5 47.5t-57.5 65t-18.5 71q0 24 8.5 46.5t25 40.5t40 29.5t53.5 14.5q29 -52 59.5 -86.5t65 -55.5t73 -29.5t82.5 -8.5q114 0 194.5 73t134 207t85 323t47.5 422t21.5 504 t7.5 568q-120 4 -241.5 6t-238.5 2h-60h-29t-29 -1q-4 -119 -10 -259t-15.5 -290t-23.5 -304.5t-34.5 -301.5t-48.5 -280.5t-65 -242.5q-59 -171 -133 -285.5t-157.5 -184t-173 -99t-178.5 -29.5q-77 0 -142.5 17t-113.5 46t-75.5 67.5t-27.5 81.5q0 24 11 47.5t30.5 41.5 t46 29.5t57.5 11.5q29 -52 64 -88.5t75 -60t83 -34.5t87 -11q115 0 195.5 74.5t135 211t85.5 329.5t47.5 429.5t22 511t7.5 575.5q-94 -5 -173.5 -12t-133.5 -27q-4 9 -4 19q0 24 22.5 45t64 36.5t99.5 25.5t129 13zM1220 2250q9 22 15.5 39t10 33t5.5 31t2 32 q0 48 -19.5 82.5t-51 56.5t-70 32t-76.5 10q-79 0 -138.5 -23.5t-103.5 -63.5t-74.5 -94t-51 -115t-33.5 -126.5t-22 -127.5q-12 -85 -20.5 -160.5t-15 -150.5t-10.5 -154.5t-7 -172.5q16 1 31 1h30h62q121 0 240.5 -2t234.5 -5q4 95 10 181t16 169.5t24.5 167.5t35.5 174 q10 45 22.5 85t27.5 78q-34 1 -70 12z" />
<glyph unicode="fk" horiz-adv-x="2499" d="M1589 644q120 40 219 91t170.5 109t110.5 122t39 131q0 28 -10.5 51.5t-28 40t-41 25.5t-50.5 9q-63 0 -130.5 -39t-134 -113t-129.5 -181t-117 -243t-97 -299t-69 -348l-202 -26l-16 1l139 2431q0 48 -19.5 82t-50 56t-69 32t-75.5 10q-78 0 -136.5 -24t-102 -64.5 t-73 -95.5t-50 -117t-33 -128.5t-21.5 -129.5q-12 -87 -20.5 -164t-14.5 -154t-10 -159t-7 -178q46 -2 91.5 -3.5t85.5 -3t72.5 -2.5t54.5 -1q42 0 81 4t65 9q11 -36 11 -57q0 -42 -38 -55t-117 -13q-54 0 -133 5.5t-176 9.5q-4 -119 -10 -259t-15.5 -290t-23.5 -304.5 t-34.5 -301.5t-48.5 -280.5t-65 -242.5q-59 -171 -133 -285.5t-157.5 -184t-173 -99t-178.5 -29.5q-77 0 -142.5 17t-113.5 46t-75.5 67.5t-27.5 81.5q0 24 11 47.5t30.5 41.5t46 29.5t57.5 11.5q29 -52 64 -88.5t75 -60t83 -34.5t87 -11q115 0 195.5 74.5t135 211 t85.5 329.5t47.5 429.5t22 511t7.5 575.5q-94 -1 -173.5 -7t-133.5 -26q-4 9 -4 19q0 24 22.5 45t64 36.5t99.5 25.5t129 13q8 107 15 208t20 200t34 197t57 199q49 138 121.5 236t157 160.5t176 91.5t178.5 29q57 0 104.5 -10.5t87.5 -28.5q15 32 53 46t83 14q57 0 121 -32 q-23 -205 -41 -376t-32.5 -317.5t-26.5 -274t-21.5 -244t-18 -228t-16.5 -226.5t-16.5 -238t-18.5 -264l6 -1q36 119 85 235t108 220.5t127 193t142 152.5t153 100.5t160 36.5q51 0 94 -16.5t74.5 -47t49 -73.5t17.5 -96q0 -83 -36 -161t-102 -150t-158.5 -136.5 t-205.5 -119.5q67 -123 120.5 -210.5t97 -147t78.5 -94.5t64.5 -53t55.5 -23.5t52 -5.5q52 0 108 16t113 42l19 -52q-36 -29 -91 -59t-116.5 -55t-122 -40.5t-106.5 -15.5q-54 0 -107.5 39.5t-115 122.5t-135.5 210.5t-170 304.5z" />
<glyph unicode="f&#x137;" horiz-adv-x="2499" d="M1589 644q120 40 219 91t170.5 109t110.5 122t39 131q0 28 -10.5 51.5t-28 40t-41 25.5t-50.5 9q-63 0 -130.5 -39t-134 -113t-129.5 -181t-117 -243t-97 -299t-69 -348l-202 -26l-16 1l139 2431q0 48 -19.5 82t-50 56t-69 32t-75.5 10q-78 0 -136.5 -24t-102 -64.5 t-73 -95.5t-50 -117t-33 -128.5t-21.5 -129.5q-12 -87 -20.5 -164t-14.5 -154t-10 -159t-7 -178q46 -2 91.5 -3.5t85.5 -3t72.5 -2.5t54.5 -1q42 0 81 4t65 9q11 -36 11 -57q0 -42 -38 -55t-117 -13q-54 0 -133 5.5t-176 9.5q-4 -119 -10 -259t-15.5 -290t-23.5 -304.5 t-34.5 -301.5t-48.5 -280.5t-65 -242.5q-59 -171 -133 -285.5t-157.5 -184t-173 -99t-178.5 -29.5q-77 0 -142.5 17t-113.5 46t-75.5 67.5t-27.5 81.5q0 24 11 47.5t30.5 41.5t46 29.5t57.5 11.5q29 -52 64 -88.5t75 -60t83 -34.5t87 -11q115 0 195.5 74.5t135 211 t85.5 329.5t47.5 429.5t22 511t7.5 575.5q-94 -1 -173.5 -7t-133.5 -26q-4 9 -4 19q0 24 22.5 45t64 36.5t99.5 25.5t129 13q8 107 15 208t20 200t34 197t57 199q49 138 121.5 236t157 160.5t176 91.5t178.5 29q57 0 104.5 -10.5t87.5 -28.5q15 32 53 46t83 14q57 0 121 -32 q-23 -205 -41 -376t-32.5 -317.5t-26.5 -274t-21.5 -244t-18 -228t-16.5 -226.5t-16.5 -238t-18.5 -264l6 -1q36 119 85 235t108 220.5t127 193t142 152.5t153 100.5t160 36.5q51 0 94 -16.5t74.5 -47t49 -73.5t17.5 -96q0 -83 -36 -161t-102 -150t-158.5 -136.5 t-205.5 -119.5q67 -123 120.5 -210.5t97 -147t78.5 -94.5t64.5 -53t55.5 -23.5t52 -5.5q52 0 108 16t113 42l19 -52q-36 -29 -91 -59t-116.5 -55t-122 -40.5t-106.5 -15.5q-54 0 -107.5 39.5t-115 122.5t-135.5 210.5t-170 304.5zM1530 -383q-13 35 -13 74q0 29 10.5 54 t29 43t43.5 28t54 10q42 0 74.5 -17.5t55 -46t34.5 -65.5t12 -76q0 -83 -26.5 -159.5t-70.5 -146.5t-102 -133t-121 -118l-48 44q47 48 82 92t58 86t34.5 84.5t11.5 89.5q0 54 -29 95.5t-89 61.5z" />
<glyph unicode="ffk" horiz-adv-x="3347" d="M310 1374q4 91 10 174.5t16 164.5t24.5 162t35.5 168q40 169 115 289t168.5 196.5t197 111.5t202.5 35q75 0 136.5 -16t109 -43t80.5 -63t51 -76q51 57 107.5 98t115.5 68t119 39.5t119 12.5q57 0 104.5 -10.5t87.5 -28.5q15 32 53 46t83 14q57 0 121 -32 q-23 -205 -41 -376t-32.5 -317.5t-26.5 -274t-21.5 -244t-18 -228t-16.5 -226.5t-16.5 -238t-18.5 -264l6 -1q36 119 85 235t108 220.5t127 193t142 152.5t153 100.5t160 36.5q51 0 94 -16.5t74.5 -47t49 -73.5t17.5 -96q0 -83 -36 -161t-102 -150t-158.5 -136.5 t-205.5 -119.5q67 -123 120.5 -210.5t97 -147t78.5 -94.5t64.5 -53t55.5 -23.5t52 -5.5q52 0 108 16t113 42l19 -52q-36 -29 -91 -59t-116.5 -55t-122 -40.5t-106.5 -15.5q-54 0 -107.5 39.5t-115 122.5t-135.5 210.5t-170 304.5l4 12q120 40 219 91t170.5 109t110.5 122 t39 131q0 28 -10.5 51.5t-28 40t-41 25.5t-50.5 9q-63 0 -130.5 -39t-134 -113t-129.5 -181t-117 -243t-97 -299t-69 -348l-202 -26l-16 1l139 2431q0 48 -19.5 82t-50 56t-69 32t-75.5 10q-78 0 -136.5 -24t-102 -64.5t-73 -95.5t-50 -117t-33 -128.5t-21.5 -129.5 q-12 -86 -20.5 -163t-14.5 -155t-10 -162.5t-7 -184.5q49 -1 96.5 -1.5t90.5 -0.5q87 0 155 3.5t116 11.5q2 -15 3.5 -29t1.5 -25q0 -25 -14 -39.5t-41.5 -22.5t-69.5 -10.5t-97 -2.5q-48 0 -110 1.5t-135 3.5q-4 -117 -10.5 -254.5t-16.5 -284t-25 -296.5t-36 -293 t-48.5 -273.5t-63.5 -236.5q-58 -168 -130 -279t-152.5 -178t-167.5 -94.5t-174 -27.5q-77 0 -136.5 17.5t-100 45t-61.5 62t-21 68.5q0 42 31.5 76.5t100.5 49.5q28 -48 59.5 -81t66.5 -53t74 -28.5t82 -8.5q114 0 193.5 72.5t132 205.5t82.5 320.5t45.5 418.5t20 499.5 t6.5 562.5q-120 4 -241.5 7t-238.5 3h-60h-29t-29 -1q-4 -119 -10 -259t-15.5 -290t-23.5 -304t-34.5 -301t-48.5 -281t-65 -243q-59 -171 -133 -285.5t-157.5 -184t-173 -99t-178.5 -29.5q-77 0 -142.5 17t-113.5 46t-75.5 67.5t-27.5 81.5q0 24 11 47.5t30.5 41.5t46 29.5 t57.5 11.5q29 -52 64 -88.5t75 -60t83 -34.5t87 -11q115 0 195.5 74.5t135 211t85.5 329.5t47.5 429.5t22 511t7.5 575.5q-94 -5 -173.5 -11.5t-133.5 -26.5q-4 9 -4 19q0 24 22.5 45t64 36.5t99.5 25.5t129 13zM1220 2250q9 22 15.5 39t10 33t5.5 31t2 32q0 48 -19.5 82.5 t-51 56.5t-70 32t-76.5 10q-79 0 -138.5 -23.5t-103.5 -63.5t-74.5 -94t-51 -115t-33.5 -126.5t-22 -127.5q-12 -85 -20.5 -160.5t-15 -151t-10.5 -155t-7 -172.5q16 1 31 1h30h62q121 0 240.5 -2.5t234.5 -6.5q6 110 13 212.5t20 201.5t35 196.5t58 198.5q5 13 9.5 25 t9.5 24q-37 0 -79 12z" />
<glyph unicode="ff&#x137;" horiz-adv-x="3347" d="M310 1374q4 91 10 174.5t16 164.5t24.5 162t35.5 168q40 169 115 289t168.5 196.5t197 111.5t202.5 35q75 0 136.5 -16t109 -43t80.5 -63t51 -76q51 57 107.5 98t115.5 68t119 39.5t119 12.5q57 0 104.5 -10.5t87.5 -28.5q15 32 53 46t83 14q57 0 121 -32 q-23 -205 -41 -376t-32.5 -317.5t-26.5 -274t-21.5 -244t-18 -228t-16.5 -226.5t-16.5 -238t-18.5 -264l6 -1q36 119 85 235t108 220.5t127 193t142 152.5t153 100.5t160 36.5q51 0 94 -16.5t74.5 -47t49 -73.5t17.5 -96q0 -83 -36 -161t-102 -150t-158.5 -136.5 t-205.5 -119.5q67 -123 120.5 -210.5t97 -147t78.5 -94.5t64.5 -53t55.5 -23.5t52 -5.5q52 0 108 16t113 42l19 -52q-36 -29 -91 -59t-116.5 -55t-122 -40.5t-106.5 -15.5q-54 0 -107.5 39.5t-115 122.5t-135.5 210.5t-170 304.5l4 12q120 40 219 91t170.5 109t110.5 122 t39 131q0 28 -10.5 51.5t-28 40t-41 25.5t-50.5 9q-63 0 -130.5 -39t-134 -113t-129.5 -181t-117 -243t-97 -299t-69 -348l-202 -26l-16 1l139 2431q0 48 -19.5 82t-50 56t-69 32t-75.5 10q-78 0 -136.5 -24t-102 -64.5t-73 -95.5t-50 -117t-33 -128.5t-21.5 -129.5 q-12 -86 -20.5 -163t-14.5 -155t-10 -162.5t-7 -184.5q49 -1 96.5 -1.5t90.5 -0.5q87 0 155 3.5t116 11.5q2 -15 3.5 -29t1.5 -25q0 -25 -14 -39.5t-41.5 -22.5t-69.5 -10.5t-97 -2.5q-48 0 -110 1.5t-135 3.5q-4 -117 -10.5 -254.5t-16.5 -284t-25 -296.5t-36 -293 t-48.5 -273.5t-63.5 -236.5q-58 -168 -130 -279t-152.5 -178t-167.5 -94.5t-174 -27.5q-77 0 -136.5 17.5t-100 45t-61.5 62t-21 68.5q0 42 31.5 76.5t100.5 49.5q28 -48 59.5 -81t66.5 -53t74 -28.5t82 -8.5q114 0 193.5 72.5t132 205.5t82.5 320.5t45.5 418.5t20 499.5 t6.5 562.5q-120 4 -241.5 7t-238.5 3h-60h-29t-29 -1q-4 -119 -10 -259t-15.5 -290t-23.5 -304t-34.5 -301t-48.5 -281t-65 -243q-59 -171 -133 -285.5t-157.5 -184t-173 -99t-178.5 -29.5q-77 0 -142.5 17t-113.5 46t-75.5 67.5t-27.5 81.5q0 24 11 47.5t30.5 41.5t46 29.5 t57.5 11.5q29 -52 64 -88.5t75 -60t83 -34.5t87 -11q115 0 195.5 74.5t135 211t85.5 329.5t47.5 429.5t22 511t7.5 575.5q-94 -5 -173.5 -11.5t-133.5 -26.5q-4 9 -4 19q0 24 22.5 45t64 36.5t99.5 25.5t129 13zM1220 2250q9 22 15.5 39t10 33t5.5 31t2 32q0 48 -19.5 82.5 t-51 56.5t-70 32t-76.5 10q-79 0 -138.5 -23.5t-103.5 -63.5t-74.5 -94t-51 -115t-33.5 -126.5t-22 -127.5q-12 -85 -20.5 -160.5t-15 -151t-10.5 -155t-7 -172.5q16 1 31 1h30h62q121 0 240.5 -2.5t234.5 -6.5q6 110 13 212.5t20 201.5t35 196.5t58 198.5q5 13 9.5 25 t9.5 24q-37 0 -79 12zM2378 -383q-13 35 -13 74q0 29 10.5 54t29 43t43.5 28t54 10q42 0 74.5 -17.5t55 -46t34.5 -65.5t12 -76q0 -83 -26.5 -159.5t-70.5 -146.5t-102 -133t-121 -118l-48 44q47 48 82 92t58 86t34.5 84.5t11.5 89.5q0 54 -29 95.5t-89 61.5z" />
<glyph unicode="&#xfb02;" horiz-adv-x="1702" d="M310 1374q8 107 15 208t20 200t34 197t57 199q49 138 121.5 236t157 160.5t176 91.5t178.5 29q58 0 107 -11t91 -31q7 17 20.5 29t31.5 19.5t39 11t42 3.5q59 0 121 -32q-30 -254 -58.5 -520t-51 -530t-36 -520t-13.5 -491q0 -113 2.5 -194t8 -137t15 -89t24 -51 t33.5 -23.5t45 -5.5q48 0 103.5 14.5t112.5 40.5l19 -52q-36 -29 -90.5 -59t-114.5 -55t-117.5 -40.5t-99.5 -15.5q-36 0 -61.5 10.5t-43 36t-28.5 69t-16.5 110t-7.5 158.5t-2 214q0 50 4 163t11 267t16 336.5t20 372t23 373t24 339.5q0 48 -19 82.5t-50 56.5t-69 32 t-76 10q-78 0 -136.5 -24t-102 -64.5t-73 -95.5t-50 -117t-33 -128.5t-21.5 -129.5q-12 -87 -20.5 -164t-14.5 -154t-10 -159t-7 -178q46 -2 91.5 -3.5t85.5 -3t72.5 -2.5t54.5 -1q42 0 81 4t65 9q11 -36 11 -57q0 -42 -38 -55t-117 -13q-54 0 -133 5.5t-176 9.5 q-4 -119 -10 -259t-15.5 -290t-23.5 -304.5t-34.5 -301.5t-48.5 -280.5t-65 -242.5q-59 -171 -133 -285.5t-157.5 -184t-173 -99t-178.5 -29.5q-77 0 -142.5 17t-113.5 46t-75.5 67.5t-27.5 81.5q0 24 11 47.5t30.5 41.5t46 29.5t57.5 11.5q29 -52 64 -88.5t75 -60t83 -34.5 t87 -11q115 0 195.5 74.5t135 211t85.5 329.5t47.5 429.5t22 511t7.5 575.5q-94 -1 -173.5 -7t-133.5 -26q-4 9 -4 19q0 24 22.5 45t64 36.5t99.5 25.5t129 13z" />
<glyph unicode="f&#x13a;" horiz-adv-x="1702" d="M310 1374q8 107 15 208t20 200t34 197t57 199q49 138 121.5 236t157 160.5t176 91.5t178.5 29q58 0 107 -11t91 -31q7 17 20.5 29t31.5 19.5t39 11t42 3.5q59 0 121 -32q-30 -254 -58.5 -520t-51 -530t-36 -520t-13.5 -491q0 -113 2.5 -194t8 -137t15 -89t24 -51 t33.5 -23.5t45 -5.5q48 0 103.5 14.5t112.5 40.5l19 -52q-36 -29 -90.5 -59t-114.5 -55t-117.5 -40.5t-99.5 -15.5q-36 0 -61.5 10.5t-43 36t-28.5 69t-16.5 110t-7.5 158.5t-2 214q0 50 4 163t11 267t16 336.5t20 372t23 373t24 339.5q0 48 -19 82.5t-50 56.5t-69 32 t-76 10q-78 0 -136.5 -24t-102 -64.5t-73 -95.5t-50 -117t-33 -128.5t-21.5 -129.5q-12 -87 -20.5 -164t-14.5 -154t-10 -159t-7 -178q46 -2 91.5 -3.5t85.5 -3t72.5 -2.5t54.5 -1q42 0 81 4t65 9q11 -36 11 -57q0 -42 -38 -55t-117 -13q-54 0 -133 5.5t-176 9.5 q-4 -119 -10 -259t-15.5 -290t-23.5 -304.5t-34.5 -301.5t-48.5 -280.5t-65 -242.5q-59 -171 -133 -285.5t-157.5 -184t-173 -99t-178.5 -29.5q-77 0 -142.5 17t-113.5 46t-75.5 67.5t-27.5 81.5q0 24 11 47.5t30.5 41.5t46 29.5t57.5 11.5q29 -52 64 -88.5t75 -60t83 -34.5 t87 -11q115 0 195.5 74.5t135 211t85.5 329.5t47.5 429.5t22 511t7.5 575.5q-94 -1 -173.5 -7t-133.5 -26q-4 9 -4 19q0 24 22.5 45t64 36.5t99.5 25.5t129 13zM1069 2832q203 84 374 182t303 213l27 -7q16 -23 27.5 -57.5t11.5 -67.5q0 -26 -8.5 -48.5t-29.5 -39.5 q-18 -13 -57.5 -31.5t-94 -40t-120 -45t-135 -46t-139.5 -43t-133 -36.5z" />
<glyph unicode="f&#x13c;" horiz-adv-x="1702" d="M310 1374q8 107 15 208t20 200t34 197t57 199q49 138 121.5 236t157 160.5t176 91.5t178.5 29q58 0 107 -11t91 -31q7 17 20.5 29t31.5 19.5t39 11t42 3.5q59 0 121 -32q-30 -254 -58.5 -520t-51 -530t-36 -520t-13.5 -491q0 -113 2.5 -194t8 -137t15 -89t24 -51 t33.5 -23.5t45 -5.5q48 0 103.5 14.5t112.5 40.5l19 -52q-36 -29 -90.5 -59t-114.5 -55t-117.5 -40.5t-99.5 -15.5q-36 0 -61.5 10.5t-43 36t-28.5 69t-16.5 110t-7.5 158.5t-2 214q0 50 4 163t11 267t16 336.5t20 372t23 373t24 339.5q0 48 -19 82.5t-50 56.5t-69 32 t-76 10q-78 0 -136.5 -24t-102 -64.5t-73 -95.5t-50 -117t-33 -128.5t-21.5 -129.5q-12 -87 -20.5 -164t-14.5 -154t-10 -159t-7 -178q46 -2 91.5 -3.5t85.5 -3t72.5 -2.5t54.5 -1q42 0 81 4t65 9q11 -36 11 -57q0 -42 -38 -55t-117 -13q-54 0 -133 5.5t-176 9.5 q-4 -119 -10 -259t-15.5 -290t-23.5 -304.5t-34.5 -301.5t-48.5 -280.5t-65 -242.5q-59 -171 -133 -285.5t-157.5 -184t-173 -99t-178.5 -29.5q-77 0 -142.5 17t-113.5 46t-75.5 67.5t-27.5 81.5q0 24 11 47.5t30.5 41.5t46 29.5t57.5 11.5q29 -52 64 -88.5t75 -60t83 -34.5 t87 -11q115 0 195.5 74.5t135 211t85.5 329.5t47.5 429.5t22 511t7.5 575.5q-94 -1 -173.5 -7t-133.5 -26q-4 9 -4 19q0 24 22.5 45t64 36.5t99.5 25.5t129 13zM1181 -383q-13 35 -13 74q0 29 10.5 54t29 43t43.5 28t54 10q42 0 74.5 -17.5t55 -46t34.5 -65.5t12 -76 q0 -83 -26.5 -159.5t-70.5 -146.5t-102 -133t-121 -118l-48 44q47 48 82 92t58 86t34.5 84.5t11.5 89.5q0 54 -29 95.5t-89 61.5z" />
<glyph unicode="&#xfb04;" horiz-adv-x="2550" d="M310 1374q4 91 10 174.5t16 164.5t24.5 162t35.5 168q40 169 115 289t168.5 196.5t197 111.5t202.5 35q75 0 136.5 -16t109 -43t80.5 -63t51 -76q51 57 107.5 98t115.5 68t119 39.5t119 12.5q58 0 107 -11t91 -31q7 17 20.5 29t31.5 19.5t39 11t42 3.5q59 0 121 -32 q-30 -254 -58.5 -520t-51 -530t-36 -520t-13.5 -491q0 -113 2.5 -194t8 -137t15 -89t24 -51t33.5 -23.5t45 -5.5q48 0 103.5 14.5t112.5 40.5l19 -52q-36 -29 -90.5 -59t-114.5 -55t-117.5 -40.5t-99.5 -15.5q-36 0 -61.5 10.5t-43 36t-28.5 69t-16.5 110t-7.5 158.5t-2 214 q0 50 4 163t11 267t16 336.5t20 372t23 373t24 339.5q0 48 -19 82.5t-50 56.5t-69 32t-76 10q-78 0 -136.5 -24t-102 -64.5t-73 -95.5t-50 -117t-33 -128.5t-21.5 -129.5q-12 -86 -20.5 -163t-14.5 -155t-10 -162.5t-7 -184.5q49 -1 96.5 -1.5t90.5 -0.5q87 0 155 3.5 t116 11.5q2 -15 3.5 -29t1.5 -25q0 -25 -14 -39.5t-41.5 -22.5t-69.5 -10.5t-97 -2.5q-48 0 -110 1.5t-135 3.5q-4 -117 -10.5 -254.5t-16.5 -284t-25 -296.5t-36 -293t-48.5 -273.5t-63.5 -236.5q-58 -168 -130 -279t-152.5 -178t-167.5 -94.5t-174 -27.5 q-77 0 -136.5 17.5t-100 45t-61.5 62t-21 68.5q0 42 31.5 76.5t100.5 49.5q28 -48 59.5 -81t66.5 -53t74 -28.5t82 -8.5q114 0 193.5 72.5t132 205.5t82.5 320.5t45.5 418.5t20 499.5t6.5 562.5q-120 4 -241.5 7t-238.5 3h-60h-29t-29 -1q-4 -119 -10 -259t-15.5 -290 t-23.5 -304t-34.5 -301t-48.5 -281t-65 -243q-59 -171 -133 -285.5t-157.5 -184t-173 -99t-178.5 -29.5q-77 0 -142.5 17t-113.5 46t-75.5 67.5t-27.5 81.5q0 24 11 47.5t30.5 41.5t46 29.5t57.5 11.5q29 -52 64 -88.5t75 -60t83 -34.5t87 -11q115 0 195.5 74.5t135 211 t85.5 329.5t47.5 429.5t22 511t7.5 575.5q-94 -5 -173.5 -11.5t-133.5 -26.5q-4 9 -4 19q0 24 22.5 45t64 36.5t99.5 25.5t129 13zM1220 2250q9 22 15.5 39t10 33t5.5 31t2 32q0 48 -19.5 82.5t-51 56.5t-70 32t-76.5 10q-79 0 -138.5 -23.5t-103.5 -63.5t-74.5 -94 t-51 -115t-33.5 -126.5t-22 -127.5q-12 -85 -20.5 -160.5t-15 -151t-10.5 -155t-7 -172.5q16 1 31 1h30h62q121 0 240.5 -2.5t234.5 -6.5q6 110 13 212.5t20 201.5t35 196.5t58 198.5q5 13 9.5 25t9.5 24q-37 0 -79 12z" />
<glyph unicode="ff&#x13a;" horiz-adv-x="2550" d="M310 1374q4 91 10 174.5t16 164.5t24.5 162t35.5 168q40 169 115 289t168.5 196.5t197 111.5t202.5 35q75 0 136.5 -16t109 -43t80.5 -63t51 -76q51 57 107.5 98t115.5 68t119 39.5t119 12.5q58 0 107 -11t91 -31q7 17 20.5 29t31.5 19.5t39 11t42 3.5q59 0 121 -32 q-30 -254 -58.5 -520t-51 -530t-36 -520t-13.5 -491q0 -113 2.5 -194t8 -137t15 -89t24 -51t33.5 -23.5t45 -5.5q48 0 103.5 14.5t112.5 40.5l19 -52q-36 -29 -90.5 -59t-114.5 -55t-117.5 -40.5t-99.5 -15.5q-36 0 -61.5 10.5t-43 36t-28.5 69t-16.5 110t-7.5 158.5t-2 214 q0 50 4 163t11 267t16 336.5t20 372t23 373t24 339.5q0 48 -19 82.5t-50 56.5t-69 32t-76 10q-78 0 -136.5 -24t-102 -64.5t-73 -95.5t-50 -117t-33 -128.5t-21.5 -129.5q-12 -86 -20.5 -163t-14.5 -155t-10 -162.5t-7 -184.5q49 -1 96.5 -1.5t90.5 -0.5q87 0 155 3.5 t116 11.5q2 -15 3.5 -29t1.5 -25q0 -25 -14 -39.5t-41.5 -22.5t-69.5 -10.5t-97 -2.5q-48 0 -110 1.5t-135 3.5q-4 -117 -10.5 -254.5t-16.5 -284t-25 -296.5t-36 -293t-48.5 -273.5t-63.5 -236.5q-58 -168 -130 -279t-152.5 -178t-167.5 -94.5t-174 -27.5 q-77 0 -136.5 17.5t-100 45t-61.5 62t-21 68.5q0 42 31.5 76.5t100.5 49.5q28 -48 59.5 -81t66.5 -53t74 -28.5t82 -8.5q114 0 193.5 72.5t132 205.5t82.5 320.5t45.5 418.5t20 499.5t6.5 562.5q-120 4 -241.5 7t-238.5 3h-60h-29t-29 -1q-4 -119 -10 -259t-15.5 -290 t-23.5 -304t-34.5 -301t-48.5 -281t-65 -243q-59 -171 -133 -285.5t-157.5 -184t-173 -99t-178.5 -29.5q-77 0 -142.5 17t-113.5 46t-75.5 67.5t-27.5 81.5q0 24 11 47.5t30.5 41.5t46 29.5t57.5 11.5q29 -52 64 -88.5t75 -60t83 -34.5t87 -11q115 0 195.5 74.5t135 211 t85.5 329.5t47.5 429.5t22 511t7.5 575.5q-94 -5 -173.5 -11.5t-133.5 -26.5q-4 9 -4 19q0 24 22.5 45t64 36.5t99.5 25.5t129 13zM1220 2250q9 22 15.5 39t10 33t5.5 31t2 32q0 48 -19.5 82.5t-51 56.5t-70 32t-76.5 10q-79 0 -138.5 -23.5t-103.5 -63.5t-74.5 -94 t-51 -115t-33.5 -126.5t-22 -127.5q-12 -85 -20.5 -160.5t-15 -151t-10.5 -155t-7 -172.5q16 1 31 1h30h62q121 0 240.5 -2.5t234.5 -6.5q6 110 13 212.5t20 201.5t35 196.5t58 198.5q5 13 9.5 25t9.5 24q-37 0 -79 12zM1917 2832q203 84 374 182t303 213l27 -7 q16 -23 27.5 -57.5t11.5 -67.5q0 -26 -8.5 -48.5t-29.5 -39.5q-18 -13 -57.5 -31.5t-94 -40t-120 -45t-135 -46t-139.5 -43t-133 -36.5z" />
<glyph unicode="ff&#x13c;" horiz-adv-x="2550" d="M310 1374q4 91 10 174.5t16 164.5t24.5 162t35.5 168q40 169 115 289t168.5 196.5t197 111.5t202.5 35q75 0 136.5 -16t109 -43t80.5 -63t51 -76q51 57 107.5 98t115.5 68t119 39.5t119 12.5q58 0 107 -11t91 -31q7 17 20.5 29t31.5 19.5t39 11t42 3.5q59 0 121 -32 q-30 -254 -58.5 -520t-51 -530t-36 -520t-13.5 -491q0 -113 2.5 -194t8 -137t15 -89t24 -51t33.5 -23.5t45 -5.5q48 0 103.5 14.5t112.5 40.5l19 -52q-36 -29 -90.5 -59t-114.5 -55t-117.5 -40.5t-99.5 -15.5q-36 0 -61.5 10.5t-43 36t-28.5 69t-16.5 110t-7.5 158.5t-2 214 q0 50 4 163t11 267t16 336.5t20 372t23 373t24 339.5q0 48 -19 82.5t-50 56.5t-69 32t-76 10q-78 0 -136.5 -24t-102 -64.5t-73 -95.5t-50 -117t-33 -128.5t-21.5 -129.5q-12 -86 -20.5 -163t-14.5 -155t-10 -162.5t-7 -184.5q49 -1 96.5 -1.5t90.5 -0.5q87 0 155 3.5 t116 11.5q2 -15 3.5 -29t1.5 -25q0 -25 -14 -39.5t-41.5 -22.5t-69.5 -10.5t-97 -2.5q-48 0 -110 1.5t-135 3.5q-4 -117 -10.5 -254.5t-16.5 -284t-25 -296.5t-36 -293t-48.5 -273.5t-63.5 -236.5q-58 -168 -130 -279t-152.5 -178t-167.5 -94.5t-174 -27.5 q-77 0 -136.5 17.5t-100 45t-61.5 62t-21 68.5q0 42 31.5 76.5t100.5 49.5q28 -48 59.5 -81t66.5 -53t74 -28.5t82 -8.5q114 0 193.5 72.5t132 205.5t82.5 320.5t45.5 418.5t20 499.5t6.5 562.5q-120 4 -241.5 7t-238.5 3h-60h-29t-29 -1q-4 -119 -10 -259t-15.5 -290 t-23.5 -304t-34.5 -301t-48.5 -281t-65 -243q-59 -171 -133 -285.5t-157.5 -184t-173 -99t-178.5 -29.5q-77 0 -142.5 17t-113.5 46t-75.5 67.5t-27.5 81.5q0 24 11 47.5t30.5 41.5t46 29.5t57.5 11.5q29 -52 64 -88.5t75 -60t83 -34.5t87 -11q115 0 195.5 74.5t135 211 t85.5 329.5t47.5 429.5t22 511t7.5 575.5q-94 -5 -173.5 -11.5t-133.5 -26.5q-4 9 -4 19q0 24 22.5 45t64 36.5t99.5 25.5t129 13zM1220 2250q9 22 15.5 39t10 33t5.5 31t2 32q0 48 -19.5 82.5t-51 56.5t-70 32t-76.5 10q-79 0 -138.5 -23.5t-103.5 -63.5t-74.5 -94 t-51 -115t-33.5 -126.5t-22 -127.5q-12 -85 -20.5 -160.5t-15 -151t-10.5 -155t-7 -172.5q16 1 31 1h30h62q121 0 240.5 -2.5t234.5 -6.5q6 110 13 212.5t20 201.5t35 196.5t58 198.5q5 13 9.5 25t9.5 24q-37 0 -79 12zM2029 -383q-13 35 -13 74q0 29 10.5 54t29 43t43.5 28 t54 10q42 0 74.5 -17.5t55 -46t34.5 -65.5t12 -76q0 -83 -26.5 -159.5t-70.5 -146.5t-102 -133t-121 -118l-48 44q47 48 82 92t58 86t34.5 84.5t11.5 89.5q0 54 -29 95.5t-89 61.5z" />
<glyph unicode="fr" horiz-adv-x="2121" d="M310 1374q4 94 10 179.5t16 169t24.5 167.5t35.5 174q27 117 70 210.5t97.5 166t118 124.5t130.5 85.5t136 49t135 15.5q95 0 171.5 -25.5t130.5 -68t83 -99t29 -118.5q0 -49 -14.5 -87t-39.5 -64.5t-57 -40t-68 -13.5q-26 0 -54 7.5t-54 23.5l-4 12q23 49 34 91.5 t11 79.5q0 46 -15.5 82t-43.5 61t-67 37.5t-85 12.5q-80 0 -140 -24t-104.5 -66t-75 -97.5t-51.5 -118.5t-34 -130.5t-22 -131.5q-12 -88 -20.5 -166.5t-15 -157t-10.5 -162t-7 -180.5q75 -2 153.5 -6.5t166.5 -4.5q106 0 229.5 12t274.5 48q-9 -66 -18 -148.5t-17.5 -171 t-16 -177t-13.5 -166t-10.5 -138.5t-6.5 -93l10 -1q48 196 108.5 365.5t136 294.5t166 196.5t198.5 71.5q38 0 71 -12t57 -33.5t38 -51t14 -64.5q0 -45 -19.5 -86.5t-61.5 -73.5h-8q-42 35 -79.5 50.5t-79.5 15.5q-45 0 -87 -17t-77 -49q-57 -52 -106 -137.5t-89.5 -189.5 t-73 -218.5t-56 -223t-38 -204t-20.5 -160.5l-209 -26l-16 1q7 90 13.5 195t11.5 218.5t10 232t8 233.5t5.5 223t3.5 202l-5 3q-66 -17 -132 -23t-135 -6q-78 0 -153.5 5t-150.5 7q-4 -119 -10 -259t-15.5 -290t-23.5 -304.5t-34.5 -301.5t-48.5 -280.5t-65 -242.5 q-59 -171 -133 -285.5t-157.5 -184t-173 -99t-178.5 -29.5q-77 0 -142.5 17t-113.5 46t-75.5 67.5t-27.5 81.5q0 24 11 47.5t30.5 41.5t46 29.5t57.5 11.5q29 -52 64 -88.5t75 -60t83 -34.5t87 -11q115 0 195.5 74.5t135 211t85.5 329.5t47.5 429.5t22 511t7.5 575.5 q-94 -1 -173.5 -7t-133.5 -26q-4 9 -4 19q0 24 22.5 45t64 36.5t99.5 25.5t129 13z" />
<glyph unicode="f&#x157;" horiz-adv-x="2121" d="M310 1374q4 94 10 179.5t16 169t24.5 167.5t35.5 174q27 117 70 210.5t97.5 166t118 124.5t130.5 85.5t136 49t135 15.5q95 0 171.5 -25.5t130.5 -68t83 -99t29 -118.5q0 -49 -14.5 -87t-39.5 -64.5t-57 -40t-68 -13.5q-26 0 -54 7.5t-54 23.5l-4 12q23 49 34 91.5 t11 79.5q0 46 -15.5 82t-43.5 61t-67 37.5t-85 12.5q-80 0 -140 -24t-104.5 -66t-75 -97.5t-51.5 -118.5t-34 -130.5t-22 -131.5q-12 -88 -20.5 -166.5t-15 -157t-10.5 -162t-7 -180.5q75 -2 153.5 -6.5t166.5 -4.5q106 0 229.5 12t274.5 48q-9 -66 -18 -148.5t-17.5 -171 t-16 -177t-13.5 -166t-10.5 -138.5t-6.5 -93l10 -1q48 196 108.5 365.5t136 294.5t166 196.5t198.5 71.5q38 0 71 -12t57 -33.5t38 -51t14 -64.5q0 -45 -19.5 -86.5t-61.5 -73.5h-8q-42 35 -79.5 50.5t-79.5 15.5q-45 0 -87 -17t-77 -49q-57 -52 -106 -137.5t-89.5 -189.5 t-73 -218.5t-56 -223t-38 -204t-20.5 -160.5l-209 -26l-16 1q7 90 13.5 195t11.5 218.5t10 232t8 233.5t5.5 223t3.5 202l-5 3q-66 -17 -132 -23t-135 -6q-78 0 -153.5 5t-150.5 7q-4 -119 -10 -259t-15.5 -290t-23.5 -304.5t-34.5 -301.5t-48.5 -280.5t-65 -242.5 q-59 -171 -133 -285.5t-157.5 -184t-173 -99t-178.5 -29.5q-77 0 -142.5 17t-113.5 46t-75.5 67.5t-27.5 81.5q0 24 11 47.5t30.5 41.5t46 29.5t57.5 11.5q29 -52 64 -88.5t75 -60t83 -34.5t87 -11q115 0 195.5 74.5t135 211t85.5 329.5t47.5 429.5t22 511t7.5 575.5 q-94 -1 -173.5 -7t-133.5 -26q-4 9 -4 19q0 24 22.5 45t64 36.5t99.5 25.5t129 13zM1030 -383q-13 35 -13 74q0 29 10.5 54t29 43t43.5 28t54 10q42 0 74.5 -17.5t55 -46t34.5 -65.5t12 -76q0 -83 -26.5 -159.5t-70.5 -146.5t-102 -133t-121 -118l-48 44q47 48 82 92t58 86 t34.5 84.5t11.5 89.5q0 54 -29 95.5t-89 61.5z" />
<glyph unicode="ffr" horiz-adv-x="2969" d="M310 1374q4 91 10 174.5t16 164.5t24.5 162t35.5 168q40 169 115 289t168.5 196.5t197 111.5t202.5 35q73 0 133 -14.5t106.5 -40t80 -59.5t52.5 -73q52 60 111 102.5t121 70.5t125 41t123 13q95 0 171.5 -25.5t130.5 -68t83 -99t29 -118.5q0 -49 -14.5 -87t-39.5 -64.5 t-57 -40t-68 -13.5q-26 0 -54 7.5t-54 23.5l-4 12q23 49 34 91.5t11 79.5q0 46 -15.5 82t-43.5 61t-67 37.5t-85 12.5q-80 0 -140 -24t-104.5 -66t-75 -97.5t-51.5 -118.5t-34 -130.5t-22 -131.5q-12 -88 -20.5 -167.5t-15 -159t-10.5 -163.5t-7 -181q75 -2 153.5 -4 t166.5 -2q106 0 229.5 12t274.5 48q-9 -66 -18 -148.5t-17.5 -171t-16 -177t-13.5 -166t-10.5 -138.5t-6.5 -93l10 -1q48 196 108.5 365.5t136 294.5t166 196.5t198.5 71.5q38 0 71 -12t57 -33.5t38 -51t14 -64.5q0 -45 -19.5 -86.5t-61.5 -73.5h-8q-42 35 -79.5 50.5 t-79.5 15.5q-45 0 -87 -17t-77 -49q-57 -52 -106 -137.5t-89.5 -189.5t-73 -218.5t-56 -223t-38 -204t-20.5 -160.5l-209 -26l-16 1q7 90 13.5 195t11.5 218.5t10 232t8 233.5t5.5 223t3.5 202l-5 3q-66 -17 -132 -23t-135 -6q-78 0 -153.5 2.5t-150.5 4.5 q-4 -117 -10.5 -254.5t-16.5 -284t-25 -296.5t-36 -293t-48.5 -273.5t-63.5 -236.5q-58 -168 -130 -279t-152.5 -178t-167.5 -94.5t-174 -27.5q-77 0 -136.5 17.5t-100 45t-61.5 62t-21 68.5q0 42 31.5 76.5t100.5 49.5q28 -48 59.5 -81t66.5 -53t74 -28.5t82 -8.5 q114 0 193.5 72t132 205t82.5 320.5t45.5 418.5t20 499t6.5 562q-121 2 -242.5 3t-238.5 1h-60h-29t-29 -1q-4 -119 -10 -259t-15.5 -290t-23.5 -304.5t-34.5 -301.5t-48.5 -280.5t-65 -242.5q-59 -171 -133 -285.5t-157.5 -184t-173 -99t-178.5 -29.5q-77 0 -142.5 17 t-113.5 46t-75.5 67.5t-27.5 81.5q0 24 11 47.5t30.5 41.5t46 29.5t57.5 11.5q29 -52 64 -88.5t75 -60t83 -34.5t87 -11q115 0 195.5 74.5t135 211t85.5 329.5t47.5 429.5t22 511t7.5 575.5q-94 -5 -173.5 -12t-133.5 -27q-4 9 -4 19q0 24 22.5 45t64 36.5t99.5 25.5t129 13 zM1220 2250q9 22 15.5 39t10 33t5.5 31t2 32q0 48 -19.5 82.5t-51 56.5t-70 32t-76.5 10q-79 0 -138.5 -23.5t-103.5 -63.5t-74.5 -94t-51 -115t-33.5 -126.5t-22 -127.5q-12 -85 -20.5 -160.5t-15 -150.5t-10.5 -154.5t-7 -172.5q16 1 31 1h30h62q121 0 240.5 -2t234.5 -5 q4 95 10 181t16 169.5t24.5 167.5t35.5 174q10 45 23 85t27 78q-33 2 -70 12z" />
<glyph unicode="ff&#x157;" horiz-adv-x="2969" d="M310 1374q4 91 10 174.5t16 164.5t24.5 162t35.5 168q40 169 115 289t168.5 196.5t197 111.5t202.5 35q73 0 133 -14.5t106.5 -40t80 -59.5t52.5 -73q52 60 111 102.5t121 70.5t125 41t123 13q95 0 171.5 -25.5t130.5 -68t83 -99t29 -118.5q0 -49 -14.5 -87t-39.5 -64.5 t-57 -40t-68 -13.5q-26 0 -54 7.5t-54 23.5l-4 12q23 49 34 91.5t11 79.5q0 46 -15.5 82t-43.5 61t-67 37.5t-85 12.5q-80 0 -140 -24t-104.5 -66t-75 -97.5t-51.5 -118.5t-34 -130.5t-22 -131.5q-12 -88 -20.5 -167.5t-15 -159t-10.5 -163.5t-7 -181q75 -2 153.5 -4 t166.5 -2q106 0 229.5 12t274.5 48q-9 -66 -18 -148.5t-17.5 -171t-16 -177t-13.5 -166t-10.5 -138.5t-6.5 -93l10 -1q48 196 108.5 365.5t136 294.5t166 196.5t198.5 71.5q38 0 71 -12t57 -33.5t38 -51t14 -64.5q0 -45 -19.5 -86.5t-61.5 -73.5h-8q-42 35 -79.5 50.5 t-79.5 15.5q-45 0 -87 -17t-77 -49q-57 -52 -106 -137.5t-89.5 -189.5t-73 -218.5t-56 -223t-38 -204t-20.5 -160.5l-209 -26l-16 1q7 90 13.5 195t11.5 218.5t10 232t8 233.5t5.5 223t3.5 202l-5 3q-66 -17 -132 -23t-135 -6q-78 0 -153.5 2.5t-150.5 4.5 q-4 -117 -10.5 -254.5t-16.5 -284t-25 -296.5t-36 -293t-48.5 -273.5t-63.5 -236.5q-58 -168 -130 -279t-152.5 -178t-167.5 -94.5t-174 -27.5q-77 0 -136.5 17.5t-100 45t-61.5 62t-21 68.5q0 42 31.5 76.5t100.5 49.5q28 -48 59.5 -81t66.5 -53t74 -28.5t82 -8.5 q114 0 193.5 72t132 205t82.5 320.5t45.5 418.5t20 499t6.5 562q-121 2 -242.5 3t-238.5 1h-60h-29t-29 -1q-4 -119 -10 -259t-15.5 -290t-23.5 -304.5t-34.5 -301.5t-48.5 -280.5t-65 -242.5q-59 -171 -133 -285.5t-157.5 -184t-173 -99t-178.5 -29.5q-77 0 -142.5 17 t-113.5 46t-75.5 67.5t-27.5 81.5q0 24 11 47.5t30.5 41.5t46 29.5t57.5 11.5q29 -52 64 -88.5t75 -60t83 -34.5t87 -11q115 0 195.5 74.5t135 211t85.5 329.5t47.5 429.5t22 511t7.5 575.5q-94 -5 -173.5 -12t-133.5 -27q-4 9 -4 19q0 24 22.5 45t64 36.5t99.5 25.5t129 13 zM1220 2250q9 22 15.5 39t10 33t5.5 31t2 32q0 48 -19.5 82.5t-51 56.5t-70 32t-76.5 10q-79 0 -138.5 -23.5t-103.5 -63.5t-74.5 -94t-51 -115t-33.5 -126.5t-22 -127.5q-12 -85 -20.5 -160.5t-15 -150.5t-10.5 -154.5t-7 -172.5q16 1 31 1h30h62q121 0 240.5 -2t234.5 -5 q4 95 10 181t16 169.5t24.5 167.5t35.5 174q10 45 23 85t27 78q-33 2 -70 12zM1878 -383q-13 35 -13 74q0 29 10.5 54t29 43t43.5 28t54 10q42 0 74.5 -17.5t55 -46t34.5 -65.5t12 -76q0 -83 -26.5 -159.5t-70.5 -146.5t-102 -133t-121 -118l-48 44q47 48 82 92t58 86 t34.5 84.5t11.5 89.5q0 54 -29 95.5t-89 61.5z" />
<glyph unicode="ft" horiz-adv-x="1844" d="M310 1374q4 94 10 179.5t16 169t24.5 167.5t35.5 174q27 117 70 210.5t97.5 166t118 124.5t130.5 85.5t136 49t135 15.5q96 0 171.5 -25.5t127 -67t79 -93.5t27.5 -106q0 -39 -13.5 -69t-36 -50.5t-53 -31.5t-64.5 -11q-47 0 -95 21l-4 10q19 40 28.5 70.5t9.5 62.5 q0 48 -20 82.5t-51.5 56.5t-71 32t-77.5 10q-80 0 -140 -24t-104.5 -66t-75 -97.5t-51.5 -118.5t-34 -130.5t-22 -131.5q-12 -88 -20.5 -166.5t-15 -157t-10.5 -162t-7 -180.5q162 -5 308.5 -8t280.5 -5q17 161 34 305.5t36 256.5q4 26 17.5 43t32 27t39.5 14t41 4 q33 0 58.5 -7t48.5 -20q-29 -150 -50 -310t-36 -315q151 0 263.5 4t184.5 14q5 -16 7.5 -30.5t2.5 -25.5q0 -27 -17 -41.5t-55 -21.5t-99.5 -8.5t-151.5 -1.5h-65q-19 0 -39 0.5t-43 1.5q-10 -105 -17 -202.5t-11.5 -184.5t-6.5 -161t-2 -130q0 -107 11 -191t39 -142.5 t77 -89.5t124 -31q54 0 120.5 19t151.5 61q27 -27 31 -66q-62 -41 -125 -74.5t-124 -57.5t-118 -37t-108 -13q-67 0 -122.5 24.5t-96 87t-63 168.5t-22.5 268q0 181 10.5 373t29.5 383q-72 2 -147.5 4t-150.5 4t-146.5 3.5t-134.5 1.5q-4 -119 -10 -259t-15.5 -290 t-23.5 -304.5t-34.5 -301.5t-48.5 -280.5t-65 -242.5q-59 -171 -133 -285.5t-157.5 -184t-173 -99t-178.5 -29.5q-77 0 -142.5 17t-113.5 46t-75.5 67.5t-27.5 81.5q0 24 11 47.5t30.5 41.5t46 29.5t57.5 11.5q29 -52 64 -88.5t75 -60t83 -34.5t87 -11q115 0 195.5 74.5 t135 211t85.5 329.5t47.5 429.5t22 511t7.5 575.5q-94 -1 -173.5 -7t-133.5 -26q-4 9 -4 19q0 24 22.5 45t64 36.5t99.5 25.5t129 13z" />
<glyph unicode="f&#x165;" horiz-adv-x="1889" d="M310 1374q4 94 10 179.5t16 169t24.5 167.5t35.5 174q27 117 70 210.5t97.5 166t118 124.5t130.5 85.5t136 49t135 15.5q96 0 171.5 -25.5t127 -67t79 -93.5t27.5 -106q0 -39 -13.5 -69t-36 -50.5t-53 -31.5t-64.5 -11q-47 0 -95 21l-4 10q19 40 28.5 70.5t9.5 62.5 q0 48 -20 82.5t-51.5 56.5t-71 32t-77.5 10q-80 0 -140 -24t-104.5 -66t-75 -97.5t-51.5 -118.5t-34 -130.5t-22 -131.5q-12 -88 -20.5 -166.5t-15 -157t-10.5 -162t-7 -180.5q162 -5 308.5 -8t280.5 -5q17 161 34 305.5t36 256.5q4 26 17.5 43t32 27t39.5 14t41 4 q33 0 58.5 -7t48.5 -20q-29 -150 -50 -310t-36 -315q151 0 263.5 4t184.5 14q5 -16 7.5 -30.5t2.5 -25.5q0 -27 -17 -41.5t-55 -21.5t-99.5 -8.5t-151.5 -1.5h-65q-19 0 -39 0.5t-43 1.5q-10 -105 -17 -202.5t-11.5 -184.5t-6.5 -161t-2 -130q0 -107 11 -191t39 -142.5 t77 -89.5t124 -31q54 0 120.5 19t151.5 61q27 -27 31 -66q-62 -41 -125 -74.5t-124 -57.5t-118 -37t-108 -13q-67 0 -122.5 24.5t-96 87t-63 168.5t-22.5 268q0 181 10.5 373t29.5 383q-72 2 -147.5 4t-150.5 4t-146.5 3.5t-134.5 1.5q-4 -119 -10 -259t-15.5 -290 t-23.5 -304.5t-34.5 -301.5t-48.5 -280.5t-65 -242.5q-59 -171 -133 -285.5t-157.5 -184t-173 -99t-178.5 -29.5q-77 0 -142.5 17t-113.5 46t-75.5 67.5t-27.5 81.5q0 24 11 47.5t30.5 41.5t46 29.5t57.5 11.5q29 -52 64 -88.5t75 -60t83 -34.5t87 -11q115 0 195.5 74.5 t135 211t85.5 329.5t47.5 429.5t22 511t7.5 575.5q-94 -1 -173.5 -7t-133.5 -26q-4 9 -4 19q0 24 22.5 45t64 36.5t99.5 25.5t129 13zM1623 1510q43 109 74 217t51.5 211.5t32 200.5t16.5 183l49 22q30 -14 54.5 -33t42 -40.5t27 -44.5t9.5 -44q0 -30 -11 -76.5 t-30.5 -104.5t-46 -124t-58 -134t-66.5 -135.5t-71 -127.5z" />
<glyph unicode="f&#x163;" horiz-adv-x="1844" d="M310 1374q4 94 10 179.5t16 169t24.5 167.5t35.5 174q27 117 70 210.5t97.5 166t118 124.5t130.5 85.5t136 49t135 15.5q96 0 171.5 -25.5t127 -67t79 -93.5t27.5 -106q0 -39 -13.5 -69t-36 -50.5t-53 -31.5t-64.5 -11q-47 0 -95 21l-4 10q19 40 28.5 70.5t9.5 62.5 q0 48 -20 82.5t-51.5 56.5t-71 32t-77.5 10q-80 0 -140 -24t-104.5 -66t-75 -97.5t-51.5 -118.5t-34 -130.5t-22 -131.5q-12 -88 -20.5 -166.5t-15 -157t-10.5 -162t-7 -180.5q162 -5 308.5 -8t280.5 -5q17 161 34 305.5t36 256.5q4 26 17.5 43t32 27t39.5 14t41 4 q33 0 58.5 -7t48.5 -20q-29 -150 -50 -310t-36 -315q151 0 263.5 4t184.5 14q5 -16 7.5 -30.5t2.5 -25.5q0 -27 -17 -41.5t-55 -21.5t-99.5 -8.5t-151.5 -1.5h-65q-19 0 -39 0.5t-43 1.5q-10 -105 -17 -202.5t-11.5 -184.5t-6.5 -161t-2 -130q0 -107 11 -191t39 -142.5 t77 -89.5t124 -31q54 0 120.5 19t151.5 61q27 -27 31 -66q-103 -67 -205 -113t-193 -62q-43 -51 -59 -82.5t-16 -51.5q0 -21 17.5 -40.5t44.5 -39.5t57.5 -41t57.5 -45t44.5 -52t17.5 -62q0 -32 -14.5 -73t-53.5 -97t-107.5 -130t-175.5 -170l-48 44q61 64 98.5 113.5 t58.5 87t28 65.5t7 49q0 28 -16 50.5t-40.5 42.5t-53 38.5t-53 38t-40.5 41.5t-16 50q0 19 8 43t26.5 54.5t49 70t76.5 90.5q-62 4 -113.5 32t-88 91t-57 166t-20.5 258q0 181 10.5 373t29.5 383q-72 2 -147.5 4t-150.5 4t-146.5 3.5t-134.5 1.5q-4 -119 -10 -259 t-15.5 -290t-23.5 -304.5t-34.5 -301.5t-48.5 -280.5t-65 -242.5q-59 -171 -133 -285.5t-157.5 -184t-173 -99t-178.5 -29.5q-77 0 -142.5 17t-113.5 46t-75.5 67.5t-27.5 81.5q0 24 11 47.5t30.5 41.5t46 29.5t57.5 11.5q29 -52 64 -88.5t75 -60t83 -34.5t87 -11 q115 0 195.5 74.5t135 211t85.5 329.5t47.5 429.5t22 511t7.5 575.5q-94 -1 -173.5 -7t-133.5 -26q-4 9 -4 19q0 24 22.5 45t64 36.5t99.5 25.5t129 13z" />
<glyph unicode="f&#x21b;" horiz-adv-x="1844" d="M310 1374q4 94 10 179.5t16 169t24.5 167.5t35.5 174q27 117 70 210.5t97.5 166t118 124.5t130.5 85.5t136 49t135 15.5q96 0 171.5 -25.5t127 -67t79 -93.5t27.5 -106q0 -39 -13.5 -69t-36 -50.5t-53 -31.5t-64.5 -11q-47 0 -95 21l-4 10q19 40 28.5 70.5t9.5 62.5 q0 48 -20 82.5t-51.5 56.5t-71 32t-77.5 10q-80 0 -140 -24t-104.5 -66t-75 -97.5t-51.5 -118.5t-34 -130.5t-22 -131.5q-12 -88 -20.5 -166.5t-15 -157t-10.5 -162t-7 -180.5q162 -5 308.5 -8t280.5 -5q17 161 34 305.5t36 256.5q4 26 17.5 43t32 27t39.5 14t41 4 q33 0 58.5 -7t48.5 -20q-29 -150 -50 -310t-36 -315q151 0 263.5 4t184.5 14q5 -16 7.5 -30.5t2.5 -25.5q0 -27 -17 -41.5t-55 -21.5t-99.5 -8.5t-151.5 -1.5h-65q-19 0 -39 0.5t-43 1.5q-10 -105 -17 -202.5t-11.5 -184.5t-6.5 -161t-2 -130q0 -107 11 -191t39 -142.5 t77 -89.5t124 -31q54 0 120.5 19t151.5 61q27 -27 31 -66q-62 -41 -125 -74.5t-124 -57.5t-118 -37t-108 -13q-67 0 -122.5 24.5t-96 87t-63 168.5t-22.5 268q0 181 10.5 373t29.5 383q-72 2 -147.5 4t-150.5 4t-146.5 3.5t-134.5 1.5q-4 -119 -10 -259t-15.5 -290 t-23.5 -304.5t-34.5 -301.5t-48.5 -280.5t-65 -242.5q-59 -171 -133 -285.5t-157.5 -184t-173 -99t-178.5 -29.5q-77 0 -142.5 17t-113.5 46t-75.5 67.5t-27.5 81.5q0 24 11 47.5t30.5 41.5t46 29.5t57.5 11.5q29 -52 64 -88.5t75 -60t83 -34.5t87 -11q115 0 195.5 74.5 t135 211t85.5 329.5t47.5 429.5t22 511t7.5 575.5q-94 -1 -173.5 -7t-133.5 -26q-4 9 -4 19q0 24 22.5 45t64 36.5t99.5 25.5t129 13zM1263 -383q-13 35 -13 74q0 29 10.5 54t29 43t43.5 28t54 10q42 0 74.5 -17.5t55 -46t34.5 -65.5t12 -76q0 -83 -26.5 -159.5 t-70.5 -146.5t-102 -133t-121 -118l-48 44q47 48 82 92t58 86t34.5 84.5t11.5 89.5q0 54 -29 95.5t-89 61.5z" />
<glyph unicode="f&#x167;" horiz-adv-x="1875" d="M310 1374q4 94 10 179.5t16 169t24.5 167.5t35.5 174q27 117 70 210.5t97.5 166t118 124.5t130.5 85.5t136 49t135 15.5q96 0 171.5 -25.5t127 -67t79 -93.5t27.5 -106q0 -39 -13.5 -69t-36 -50.5t-53 -31.5t-64.5 -11q-47 0 -95 21l-4 10q19 40 28.5 70.5t9.5 62.5 q0 48 -20 82.5t-51.5 56.5t-71 32t-77.5 10q-80 0 -140 -24t-104.5 -66t-75 -97.5t-51.5 -118.5t-34 -130.5t-22 -131.5q-12 -88 -20.5 -166.5t-15 -157t-10.5 -162t-7 -180.5q162 -5 308.5 -8t280.5 -5q17 161 34 305.5t36 256.5q4 26 17.5 43t32 27t39.5 14t41 4 q33 0 58.5 -7t48.5 -20q-29 -150 -50 -310t-36 -315q151 0 263.5 4t184.5 14q5 -16 7.5 -30.5t2.5 -25.5q0 -27 -17 -41.5t-55 -21.5t-99.5 -8.5t-151.5 -1.5h-65q-19 0 -39 0.5t-43 1.5q-8 -75 -13 -140t-9 -131q46 -2 90.5 -3.5t83 -3t70 -2t52.5 -0.5q45 0 85 3.5t68 8.5 q6 -30 6 -54q0 -23 -8.5 -36.5t-27 -21t-49 -10t-73.5 -2.5q-52 0 -129.5 5.5t-173.5 9.5q-5 -91 -7 -167.5t-2 -133.5q0 -107 11 -191t39 -142.5t77 -89.5t124 -31q54 0 120.5 19t151.5 61q27 -27 31 -66q-62 -41 -125 -74.5t-124 -57.5t-118 -37t-108 -13 q-67 0 -122.5 24.5t-96 87t-63 168.5t-22.5 268q0 91 2.5 185t7.5 191q-78 -1 -138 -6.5t-108 -17.5q-2 3 -2.5 8t-0.5 8q0 42 66.5 74.5t189.5 40.5q5 72 10.5 137.5t12.5 135.5q-72 2 -147.5 4t-150.5 4t-146.5 3.5t-134.5 1.5q-4 -119 -10 -259t-15.5 -290t-23.5 -304.5 t-34.5 -301.5t-48.5 -280.5t-65 -242.5q-59 -171 -133 -285.5t-157.5 -184t-173 -99t-178.5 -29.5q-77 0 -142.5 17t-113.5 46t-75.5 67.5t-27.5 81.5q0 24 11 47.5t30.5 41.5t46 29.5t57.5 11.5q29 -52 64 -88.5t75 -60t83 -34.5t87 -11q115 0 195.5 74.5t135 211 t85.5 329.5t47.5 429.5t22 511t7.5 575.5q-94 -1 -173.5 -7t-133.5 -26q-4 9 -4 19q0 24 22.5 45t64 36.5t99.5 25.5t129 13z" />
<glyph unicode="fft" horiz-adv-x="2692" d="M310 1374q4 91 10 174.5t16 164.5t24.5 162t35.5 168q40 169 115 289t168.5 196.5t197 111.5t202.5 35q73 0 133 -14.5t106.5 -40t80 -59.5t52.5 -73q52 60 111 102.5t121 70.5t125 41t123 13q96 0 171.5 -25.5t127 -67t79 -93.5t27.5 -106q0 -39 -13.5 -69t-36 -50.5 t-53 -31.5t-64.5 -11q-47 0 -95 21l-4 10q19 40 28.5 70.5t9.5 62.5q0 48 -20 82.5t-51.5 56.5t-71 32t-77.5 10q-80 0 -140 -24t-104.5 -66t-75 -97.5t-51.5 -118.5t-34 -130.5t-22 -131.5q-12 -88 -20.5 -166.5t-15 -157.5t-10.5 -162.5t-7 -180.5q163 -5 308.5 -8 t280.5 -5q17 160 34 305.5t36 257.5q4 26 17.5 43t32 27t39.5 14t41 4q33 0 58.5 -7t48.5 -20q-29 -150 -50 -310t-36 -315q150 1 263 5t185 13q5 -16 7.5 -30.5t2.5 -25.5q0 -27 -17 -41.5t-55 -21.5t-99.5 -8.5t-151.5 -1.5h-65h-39t-43 1q-10 -105 -17 -202.5 t-11.5 -184.5t-6.5 -160.5t-2 -129.5q0 -107 11 -191t39 -142.5t77 -89.5t124 -31q54 0 120.5 19t151.5 61q27 -27 31 -66q-62 -41 -125 -74.5t-124 -57.5t-118 -37t-108 -13q-67 0 -122.5 24.5t-96 87t-63 168.5t-22.5 268q0 181 10.5 372t29.5 381q-72 1 -147.5 3t-150 4 t-146 4t-135.5 4q-4 -117 -10.5 -254.5t-16.5 -284t-25 -296.5t-36 -293t-48.5 -273.5t-63.5 -236.5q-58 -168 -130 -279t-152.5 -178t-167.5 -94.5t-174 -27.5q-77 0 -136.5 17.5t-100 45t-61.5 62t-21 68.5q0 42 31.5 76.5t100.5 49.5q28 -48 59.5 -81t66.5 -53t74 -28.5 t82 -8.5q114 0 193.5 72.5t132 205.5t82.5 320.5t45.5 418.5t20 499.5t6.5 562.5q-81 -2 -161.5 -2.5t-161.5 -0.5h-139h-68t-69 -1q-4 -119 -10 -259t-15.5 -290t-23.5 -304t-34.5 -301t-48.5 -281t-65 -243q-59 -171 -133 -285.5t-157.5 -184t-173 -99t-178.5 -29.5 q-77 0 -142.5 17t-113.5 46t-75.5 67.5t-27.5 81.5q0 24 11 47.5t30.5 41.5t46 29.5t57.5 11.5q29 -52 64 -88.5t75 -60t83 -34.5t87 -11q115 0 195.5 74.5t135 211t85.5 329.5t47.5 429.5t22 511t7.5 575.5q-94 -5 -173.5 -11.5t-133.5 -26.5q-4 9 -4 19q0 24 22.5 45 t64 36.5t99.5 25.5t129 13zM1158 1374q4 94 10 179.5t16 169t24.5 167.5t35.5 174q10 45 23 85t27 78q-33 2 -70 12l-4 11q9 22 15.5 39t10 33t5.5 31t2 32q0 48 -19.5 82.5t-51 56.5t-70 32t-76.5 10q-79 0 -138.5 -23.5t-103.5 -63.5t-74.5 -94t-51 -115t-33.5 -126.5 t-22 -127.5q-12 -85 -20.5 -160.5t-15 -151t-10.5 -155t-7 -172.5q16 1 31 1h30h62q121 0 240.5 -1t234.5 -3z" />
<glyph unicode="ff&#x165;" horiz-adv-x="2737" d="M310 1374q4 91 10 174.5t16 164.5t24.5 162t35.5 168q40 169 115 289t168.5 196.5t197 111.5t202.5 35q73 0 133 -14.5t106.5 -40t80 -59.5t52.5 -73q52 60 111 102.5t121 70.5t125 41t123 13q96 0 171.5 -25.5t127 -67t79 -93.5t27.5 -106q0 -39 -13.5 -69t-36 -50.5 t-53 -31.5t-64.5 -11q-47 0 -95 21l-4 10q19 40 28.5 70.5t9.5 62.5q0 48 -20 82.5t-51.5 56.5t-71 32t-77.5 10q-80 0 -140 -24t-104.5 -66t-75 -97.5t-51.5 -118.5t-34 -130.5t-22 -131.5q-12 -88 -20.5 -166.5t-15 -157.5t-10.5 -162.5t-7 -180.5q163 -5 308.5 -8 t280.5 -5q17 160 34 305.5t36 257.5q4 26 17.5 43t32 27t39.5 14t41 4q33 0 58.5 -7t48.5 -20q-29 -150 -50 -310t-36 -315q150 1 263 5t185 13q5 -16 7.5 -30.5t2.5 -25.5q0 -27 -17 -41.5t-55 -21.5t-99.5 -8.5t-151.5 -1.5h-65h-39t-43 1q-10 -105 -17 -202.5 t-11.5 -184.5t-6.5 -160.5t-2 -129.5q0 -107 11 -191t39 -142.5t77 -89.5t124 -31q54 0 120.5 19t151.5 61q27 -27 31 -66q-62 -41 -125 -74.5t-124 -57.5t-118 -37t-108 -13q-67 0 -122.5 24.5t-96 87t-63 168.5t-22.5 268q0 181 10.5 372t29.5 381q-72 1 -147.5 3t-150 4 t-146 4t-135.5 4q-4 -117 -10.5 -254.5t-16.5 -284t-25 -296.5t-36 -293t-48.5 -273.5t-63.5 -236.5q-58 -168 -130 -279t-152.5 -178t-167.5 -94.5t-174 -27.5q-77 0 -136.5 17.5t-100 45t-61.5 62t-21 68.5q0 42 31.5 76.5t100.5 49.5q28 -48 59.5 -81t66.5 -53t74 -28.5 t82 -8.5q114 0 193.5 72.5t132 205.5t82.5 320.5t45.5 418.5t20 499.5t6.5 562.5q-81 -2 -161.5 -2.5t-161.5 -0.5h-139h-68t-69 -1q-4 -119 -10 -259t-15.5 -290t-23.5 -304t-34.5 -301t-48.5 -281t-65 -243q-59 -171 -133 -285.5t-157.5 -184t-173 -99t-178.5 -29.5 q-77 0 -142.5 17t-113.5 46t-75.5 67.5t-27.5 81.5q0 24 11 47.5t30.5 41.5t46 29.5t57.5 11.5q29 -52 64 -88.5t75 -60t83 -34.5t87 -11q115 0 195.5 74.5t135 211t85.5 329.5t47.5 429.5t22 511t7.5 575.5q-94 -5 -173.5 -11.5t-133.5 -26.5q-4 9 -4 19q0 24 22.5 45 t64 36.5t99.5 25.5t129 13zM1158 1374q4 94 10 179.5t16 169t24.5 167.5t35.5 174q10 45 23 85t27 78q-33 2 -70 12l-4 11q9 22 15.5 39t10 33t5.5 31t2 32q0 48 -19.5 82.5t-51 56.5t-70 32t-76.5 10q-79 0 -138.5 -23.5t-103.5 -63.5t-74.5 -94t-51 -115t-33.5 -126.5 t-22 -127.5q-12 -85 -20.5 -160.5t-15 -151t-10.5 -155t-7 -172.5q16 1 31 1h30h62q121 0 240.5 -1t234.5 -3zM2471 1510q43 109 74 217t51.5 211.5t32 200.5t16.5 183l49 22q30 -14 54.5 -33t42 -40.5t27 -44.5t9.5 -44q0 -30 -11 -76.5t-30.5 -104.5t-46 -124t-58 -134 t-66.5 -135.5t-71 -127.5z" />
<glyph unicode="ff&#x163;" horiz-adv-x="2692" d="M310 1374q4 91 10 174.5t16 164.5t24.5 162t35.5 168q40 169 115 289t168.5 196.5t197 111.5t202.5 35q73 0 133 -14.5t106.5 -40t80 -59.5t52.5 -73q52 60 111 102.5t121 70.5t125 41t123 13q96 0 171.5 -25.5t127 -67t79 -93.5t27.5 -106q0 -39 -13.5 -69t-36 -50.5 t-53 -31.5t-64.5 -11q-47 0 -95 21l-4 10q19 40 28.5 70.5t9.5 62.5q0 48 -20 82.5t-51.5 56.5t-71 32t-77.5 10q-80 0 -140 -24t-104.5 -66t-75 -97.5t-51.5 -118.5t-34 -130.5t-22 -131.5q-12 -88 -20.5 -166.5t-15 -157.5t-10.5 -162.5t-7 -180.5q163 -5 308.5 -8 t280.5 -5q17 160 34 305.5t36 257.5q4 26 17.5 43t32 27t39.5 14t41 4q33 0 58.5 -7t48.5 -20q-29 -150 -50 -310t-36 -315q150 1 263 5t185 13q5 -16 7.5 -30.5t2.5 -25.5q0 -27 -17 -41.5t-55 -21.5t-99.5 -8.5t-151.5 -1.5h-65h-39t-43 1q-10 -105 -17 -202.5 t-11.5 -184.5t-6.5 -160.5t-2 -129.5q0 -107 11 -191t39 -142.5t77 -89.5t124 -31q54 0 120.5 19t151.5 61q27 -27 31 -66q-103 -67 -205 -113t-193 -62q-43 -51 -59 -82.5t-16 -51.5q0 -21 17.5 -40.5t44.5 -39.5t57.5 -41t57.5 -45t44.5 -52t17.5 -62q0 -32 -14.5 -73 t-53.5 -97t-107.5 -130t-175.5 -170l-48 44q61 64 98.5 113.5t58.5 87t28 65.5t7 49q0 28 -16 50.5t-40.5 42.5t-53 38.5t-53 38t-40.5 41.5t-16 50q0 19 8 43t26.5 54.5t49 70t76.5 90.5q-62 4 -113.5 32t-88 91t-57 166t-20.5 258q0 181 10.5 372t29.5 381q-72 1 -147.5 3 t-150 4t-146 4t-135.5 4q-4 -117 -10.5 -254.5t-16.5 -284t-25 -296.5t-36 -293t-48.5 -273.5t-63.5 -236.5q-58 -168 -130 -279t-152.5 -178t-167.5 -94.5t-174 -27.5q-77 0 -136.5 17.5t-100 45t-61.5 62t-21 68.5q0 42 31.5 76.5t100.5 49.5q28 -48 59.5 -81t66.5 -53 t74 -28.5t82 -8.5q114 0 193.5 72.5t132 205.5t82.5 320.5t45.5 418.5t20 499.5t6.5 562.5q-81 -2 -161.5 -2.5t-161.5 -0.5h-139h-68t-69 -1q-4 -119 -10 -259t-15.5 -290t-23.5 -304t-34.5 -301t-48.5 -281t-65 -243q-59 -171 -133 -285.5t-157.5 -184t-173 -99 t-178.5 -29.5q-77 0 -142.5 17t-113.5 46t-75.5 67.5t-27.5 81.5q0 24 11 47.5t30.5 41.5t46 29.5t57.5 11.5q29 -52 64 -88.5t75 -60t83 -34.5t87 -11q115 0 195.5 74.5t135 211t85.5 329.5t47.5 429.5t22 511t7.5 575.5q-94 -5 -173.5 -11.5t-133.5 -26.5q-4 9 -4 19 q0 24 22.5 45t64 36.5t99.5 25.5t129 13zM1220 2250q9 22 15.5 39t10 33t5.5 31t2 32q0 48 -19.5 82.5t-51 56.5t-70 32t-76.5 10q-79 0 -138.5 -23.5t-103.5 -63.5t-74.5 -94t-51 -115t-33.5 -126.5t-22 -127.5q-12 -85 -20.5 -160.5t-15 -151t-10.5 -155t-7 -172.5 q16 1 31 1h30h62q121 0 240.5 -1t234.5 -3q4 94 10 179.5t16 169t24.5 167.5t35.5 174q10 45 23 85t27 78q-33 2 -70 12z" />
<glyph unicode="ff&#x21b;" horiz-adv-x="2692" d="M310 1374q4 91 10 174.5t16 164.5t24.5 162t35.5 168q40 169 115 289t168.5 196.5t197 111.5t202.5 35q73 0 133 -14.5t106.5 -40t80 -59.5t52.5 -73q52 60 111 102.5t121 70.5t125 41t123 13q96 0 171.5 -25.5t127 -67t79 -93.5t27.5 -106q0 -39 -13.5 -69t-36 -50.5 t-53 -31.5t-64.5 -11q-47 0 -95 21l-4 10q19 40 28.5 70.5t9.5 62.5q0 48 -20 82.5t-51.5 56.5t-71 32t-77.5 10q-80 0 -140 -24t-104.5 -66t-75 -97.5t-51.5 -118.5t-34 -130.5t-22 -131.5q-12 -88 -20.5 -166.5t-15 -157.5t-10.5 -162.5t-7 -180.5q163 -5 308.5 -8 t280.5 -5q17 160 34 305.5t36 257.5q4 26 17.5 43t32 27t39.5 14t41 4q33 0 58.5 -7t48.5 -20q-29 -150 -50 -310t-36 -315q150 1 263 5t185 13q5 -16 7.5 -30.5t2.5 -25.5q0 -27 -17 -41.5t-55 -21.5t-99.5 -8.5t-151.5 -1.5h-65h-39t-43 1q-10 -105 -17 -202.5 t-11.5 -184.5t-6.5 -160.5t-2 -129.5q0 -107 11 -191t39 -142.5t77 -89.5t124 -31q54 0 120.5 19t151.5 61q27 -27 31 -66q-62 -41 -125 -74.5t-124 -57.5t-118 -37t-108 -13q-67 0 -122.5 24.5t-96 87t-63 168.5t-22.5 268q0 181 10.5 372t29.5 381q-72 1 -147.5 3t-150 4 t-146 4t-135.5 4q-4 -117 -10.5 -254.5t-16.5 -284t-25 -296.5t-36 -293t-48.5 -273.5t-63.5 -236.5q-58 -168 -130 -279t-152.5 -178t-167.5 -94.5t-174 -27.5q-77 0 -136.5 17.5t-100 45t-61.5 62t-21 68.5q0 42 31.5 76.5t100.5 49.5q28 -48 59.5 -81t66.5 -53t74 -28.5 t82 -8.5q114 0 193.5 72.5t132 205.5t82.5 320.5t45.5 418.5t20 499.5t6.5 562.5q-81 -2 -161.5 -2.5t-161.5 -0.5h-139h-68t-69 -1q-4 -119 -10 -259t-15.5 -290t-23.5 -304t-34.5 -301t-48.5 -281t-65 -243q-59 -171 -133 -285.5t-157.5 -184t-173 -99t-178.5 -29.5 q-77 0 -142.5 17t-113.5 46t-75.5 67.5t-27.5 81.5q0 24 11 47.5t30.5 41.5t46 29.5t57.5 11.5q29 -52 64 -88.5t75 -60t83 -34.5t87 -11q115 0 195.5 74.5t135 211t85.5 329.5t47.5 429.5t22 511t7.5 575.5q-94 -5 -173.5 -11.5t-133.5 -26.5q-4 9 -4 19q0 24 22.5 45 t64 36.5t99.5 25.5t129 13zM1158 1374q4 94 10 179.5t16 169t24.5 167.5t35.5 174q10 45 23 85t27 78q-33 2 -70 12l-4 11q9 22 15.5 39t10 33t5.5 31t2 32q0 48 -19.5 82.5t-51 56.5t-70 32t-76.5 10q-79 0 -138.5 -23.5t-103.5 -63.5t-74.5 -94t-51 -115t-33.5 -126.5 t-22 -127.5q-12 -85 -20.5 -160.5t-15 -151t-10.5 -155t-7 -172.5q16 1 31 1h30h62q121 0 240.5 -1t234.5 -3zM2111 -383q-13 35 -13 74q0 29 10.5 54t29 43t43.5 28t54 10q42 0 74.5 -17.5t55 -46t34.5 -65.5t12 -76q0 -83 -26.5 -159.5t-70.5 -146.5t-102 -133t-121 -118 l-48 44q47 48 82 92t58 86t34.5 84.5t11.5 89.5q0 54 -29 95.5t-89 61.5z" />
<glyph unicode="ff&#x167;" horiz-adv-x="2723" d="M310 1374q4 91 10 174.5t16 164.5t24.5 162t35.5 168q40 169 115 289t168.5 196.5t197 111.5t202.5 35q73 0 133 -14.5t106.5 -40t80 -59.5t52.5 -73q52 60 111 102.5t121 70.5t125 41t123 13q96 0 171.5 -25.5t127 -67t79 -93.5t27.5 -106q0 -39 -13.5 -69t-36 -50.5 t-53 -31.5t-64.5 -11q-47 0 -95 21l-4 10q19 40 28.5 70.5t9.5 62.5q0 48 -20 82.5t-51.5 56.5t-71 32t-77.5 10q-80 0 -140 -24t-104.5 -66t-75 -97.5t-51.5 -118.5t-34 -130.5t-22 -131.5q-12 -88 -20.5 -166.5t-15 -157.5t-10.5 -162.5t-7 -180.5q163 -5 308.5 -8 t280.5 -5q17 160 34 305.5t36 257.5q4 26 17.5 43t32 27t39.5 14t41 4q33 0 58.5 -7t48.5 -20q-29 -150 -50 -310t-36 -315q150 1 263 5t185 13q5 -16 7.5 -31.5t2.5 -26.5q0 -27 -17 -41t-55 -21t-99.5 -8t-151.5 -1h-65h-39t-43 1q-8 -75 -13 -139.5t-9 -130.5 q46 -2 90.5 -3.5t83 -3t70 -2t52.5 -0.5q45 0 85 3.5t68 8.5q6 -30 6 -54q0 -23 -8.5 -36.5t-27 -21t-49 -10t-73.5 -2.5q-52 0 -129.5 5.5t-173.5 9.5q-5 -91 -7 -167.5t-2 -133.5q0 -107 11 -191t39 -142.5t77 -89.5t124 -31q54 0 120.5 19t151.5 61q27 -27 31 -66 q-62 -41 -125 -74.5t-124 -57.5t-118 -37t-108 -13q-67 0 -122.5 24.5t-96 87t-63 168.5t-22.5 268q0 91 2.5 185t7.5 191q-78 -1 -138 -6.5t-108 -17.5q-2 3 -2.5 8t-0.5 8q0 42 66.5 74.5t189.5 40.5q5 72 10.5 136.5t12.5 133.5q-72 1 -147.5 3t-150 4t-146 4t-135.5 4 q-4 -117 -10.5 -254.5t-16.5 -284t-25 -296.5t-36 -293t-48.5 -273.5t-63.5 -236.5q-58 -168 -130 -279t-152.5 -178t-167.5 -94.5t-174 -27.5q-77 0 -136.5 17.5t-100 45t-61.5 62t-21 68.5q0 42 31.5 76.5t100.5 49.5q28 -48 59.5 -81t66.5 -53t74 -28.5t82 -8.5 q114 0 193.5 72t132 205t82.5 320t45.5 418t20 499t6.5 562q-81 0 -161.5 0.5t-161.5 0.5q-72 0 -139.5 -0.5t-136.5 -1.5q-4 -119 -10 -259t-15.5 -290t-23.5 -304t-34.5 -301t-48.5 -281t-65 -243q-59 -171 -133 -285.5t-157.5 -184t-173 -99t-178.5 -29.5 q-77 0 -142.5 17t-113.5 46t-75.5 67.5t-27.5 81.5q0 24 11 47.5t30.5 41.5t46 29.5t57.5 11.5q29 -52 64 -88.5t75 -60t83 -34.5t87 -11q115 0 195.5 74.5t135 211t85.5 329.5t47.5 429.5t22 511t7.5 575.5q-94 -5 -173.5 -11.5t-133.5 -26.5q-4 9 -4 17q0 24 22.5 45 t64 37t99.5 26.5t129 13.5zM1220 2250q9 22 15.5 39t10 33t5.5 31t2 32q0 48 -19.5 82.5t-51 56.5t-70 32t-76.5 10q-79 0 -138.5 -23.5t-103.5 -63.5t-74.5 -94t-51 -115t-33.5 -126.5t-22 -127.5q-12 -85 -20.5 -160.5t-15 -151t-10.5 -155t-7 -172.5q16 1 31 1h30h62 q121 0 240.5 -1t234.5 -3q4 94 10 179.5t16 169t24.5 167.5t35.5 174q10 45 23 85t27 78q-33 2 -70 12z" />
<glyph unicode="tt" horiz-adv-x="1826" d="M1411 1356q78 0 141 2t98 4q45 2 83 5t66 8q11 -38 11 -60q0 -44 -36.5 -59.5t-105.5 -15.5q-66 0 -148 2t-179 6q-11 -115 -18 -219t-11.5 -192t-6.5 -156t-2 -111q0 -107 11 -191t39 -142.5t77 -89.5t124 -31q54 0 120.5 19t151.5 61q27 -27 31 -66q-62 -41 -125 -74.5 t-124 -57.5t-118 -37t-108 -13q-67 0 -122.5 24.5t-96 87t-63 168.5t-22.5 268q0 177 10.5 366.5t30.5 391.5q-124 5 -257.5 8t-277.5 3h-75q-11 -107 -18.5 -207.5t-12 -189.5t-6.5 -165t-2 -133q0 -107 11 -191t39 -142.5t77 -89.5t124 -31q54 0 116 17.5t146 56.5 q27 -27 31 -66q-57 -38 -117.5 -70t-121 -55.5t-118 -37t-108.5 -13.5q-67 0 -122.5 24.5t-96 87t-63 168.5t-22.5 268q0 184 11 380.5t31 390.5q-79 -1 -146.5 -6.5t-115.5 -17.5q-2 3 -2.5 8t-0.5 8q0 21 20.5 40t57 34.5t87.5 26t112 14.5q10 91 21 180t22.5 172.5 t23 159t22.5 138.5q5 27 18.5 45t31 28.5t38 14.5t40.5 4q33 0 59 -7t49 -20q-17 -84 -32 -174.5t-28 -182.5t-24 -183.5t-20 -178.5q153 0 304.5 -3.5t305.5 -7.5q20 196 45.5 383t57.5 359q5 26 18.5 43t31.5 27t39 14t41 4q33 0 59.5 -7t49.5 -20q-21 -95 -39 -196 t-33 -203.5t-27 -205t-21 -201.5h59z" />
<glyph unicode="&#x3b1;&#x3c2;" horiz-adv-x="2623" d="M1958 -386q63 -20 130 -20q45 0 89 10t78.5 30.5t55.5 51.5t21 73q0 39 -19 69t-51 54t-75.5 45t-92.5 43q-53 24 -108.5 52t-107 67t-97.5 91.5t-80 124.5h-9q-63 -178 -159.5 -268t-211.5 -90q-62 0 -116.5 24t-98.5 76t-75.5 134t-47.5 198h-6q-75 -138 -146.5 -223 t-135.5 -131.5t-119 -62.5t-98 -16q-86 0 -152.5 45.5t-112.5 123.5t-70 183.5t-24 225.5q0 121 21 237t59 220t90.5 191.5t115 151.5t132.5 99.5t144 35.5q55 0 97.5 -23.5t75 -64.5t57 -98t42.5 -124t31 -141.5t24 -150.5l6 -1q33 109 65 242t66 292q6 30 39.5 46t81.5 16 q34 0 70.5 -8.5t69.5 -27.5q-46 -139 -90.5 -261.5t-87.5 -231t-85 -205t-84 -183.5q14 -98 41 -165.5t64.5 -110t83.5 -61.5t99 -19q63 0 117 29t93.5 76.5t61.5 108t22 122.5q0 22 -4.5 56t-4.5 97q0 92 19 186t56.5 181.5t93 164.5t128 134t162 90t194.5 33q43 0 82.5 -5 t79.5 -12q38 -7 76.5 -12.5t86.5 -7.5q3 -23 3 -44q0 -81 -38.5 -132t-110.5 -51q-7 0 -18.5 1.5t-25.5 3.5l-27 4l-24 4q-26 5 -54.5 8.5t-60.5 3.5q-73 0 -138.5 -24t-120.5 -65t-99.5 -96t-75.5 -117.5t-47.5 -129t-16.5 -130.5q0 -90 31 -155t81.5 -113.5t115 -85 t131.5 -70.5q65 -32 126.5 -67.5t109.5 -82t77.5 -108.5t29.5 -146q0 -49 -12.5 -100.5t-36 -100t-56 -91.5t-71.5 -75t-84.5 -50.5t-93.5 -18.5q-39 0 -69.5 11.5t-52.5 32.5t-33.5 49.5t-11.5 62.5q0 33 10 62zM693 1213q-45 0 -96.5 -22t-101.5 -64t-96 -101t-80.5 -134 t-55.5 -163t-21 -187q0 -164 61 -255.5t186 -91.5q47 0 102 16.5t114 67.5t120 146t121 251q-12 105 -31 202.5t-48.5 171.5t-72 118.5t-101.5 44.5z" />
<glyph unicode="&#x3ac;&#x3c2;" horiz-adv-x="2623" d="M1958 -386q63 -20 130 -20q45 0 89 10t78.5 30.5t55.5 51.5t21 73q0 39 -19 69t-51 54t-75.5 45t-92.5 43q-53 24 -108.5 52t-107 67t-97.5 91.5t-80 124.5h-9q-63 -178 -159.5 -268t-211.5 -90q-62 0 -116.5 24t-98.5 76t-75.5 134t-47.5 198h-6q-75 -138 -146.5 -223 t-135.5 -131.5t-119 -62.5t-98 -16q-86 0 -152.5 45.5t-112.5 123.5t-70 183.5t-24 225.5q0 121 21 237t59 220t90.5 191.5t115 151.5t132.5 99.5t144 35.5q55 0 97.5 -23.5t75 -64.5t57 -98t42.5 -124t31 -141.5t24 -150.5l6 -1q33 109 65 242t66 292q6 30 39.5 46t81.5 16 q34 0 70.5 -8.5t69.5 -27.5q-46 -139 -90.5 -261.5t-87.5 -231t-85 -205t-84 -183.5q14 -98 41 -165.5t64.5 -110t83.5 -61.5t99 -19q63 0 117 29t93.5 76.5t61.5 108t22 122.5q0 22 -4.5 56t-4.5 97q0 92 19 186t56.5 181.5t93 164.5t128 134t162 90t194.5 33q43 0 82.5 -5 t79.5 -12q38 -7 76.5 -12.5t86.5 -7.5q3 -23 3 -44q0 -81 -38.5 -132t-110.5 -51q-7 0 -18.5 1.5t-25.5 3.5l-27 4l-24 4q-26 5 -54.5 8.5t-60.5 3.5q-73 0 -138.5 -24t-120.5 -65t-99.5 -96t-75.5 -117.5t-47.5 -129t-16.5 -130.5q0 -90 31 -155t81.5 -113.5t115 -85 t131.5 -70.5q65 -32 126.5 -67.5t109.5 -82t77.5 -108.5t29.5 -146q0 -49 -12.5 -100.5t-36 -100t-56 -91.5t-71.5 -75t-84.5 -50.5t-93.5 -18.5q-39 0 -69.5 11.5t-52.5 32.5t-33.5 49.5t-11.5 62.5q0 33 10 62zM693 1213q-45 0 -96.5 -22t-101.5 -64t-96 -101t-80.5 -134 t-55.5 -163t-21 -187q0 -164 61 -255.5t186 -91.5q47 0 102 16.5t114 67.5t120 146t121 251q-12 105 -31 202.5t-48.5 171.5t-72 118.5t-101.5 44.5zM740 1599q109 203 186 393t134 365l47 12q28 -19 51 -42.5t39.5 -47t26 -44.5t9.5 -34q0 -21 -19 -61.5t-52 -92.5 t-76 -113.5t-91 -124.5t-98 -125t-96 -116z" />
<glyph unicode="&#x1f70;&#x3c2;" horiz-adv-x="2623" d="M1958 -386q63 -20 130 -20q45 0 89 10t78.5 30.5t55.5 51.5t21 73q0 39 -19 69t-51 54t-75.5 45t-92.5 43q-53 24 -108.5 52t-107 67t-97.5 91.5t-80 124.5h-9q-63 -178 -159.5 -268t-211.5 -90q-62 0 -116.5 24t-98.5 76t-75.5 134t-47.5 198h-6q-75 -138 -146.5 -223 t-135.5 -131.5t-119 -62.5t-98 -16q-86 0 -152.5 45.5t-112.5 123.5t-70 183.5t-24 225.5q0 121 21 237t59 220t90.5 191.5t115 151.5t132.5 99.5t144 35.5q55 0 97.5 -23.5t75 -64.5t57 -98t42.5 -124t31 -141.5t24 -150.5l6 -1q33 109 65 242t66 292q6 30 39.5 46t81.5 16 q34 0 70.5 -8.5t69.5 -27.5q-46 -139 -90.5 -261.5t-87.5 -231t-85 -205t-84 -183.5q14 -98 41 -165.5t64.5 -110t83.5 -61.5t99 -19q63 0 117 29t93.5 76.5t61.5 108t22 122.5q0 22 -4.5 56t-4.5 97q0 92 19 186t56.5 181.5t93 164.5t128 134t162 90t194.5 33q43 0 82.5 -5 t79.5 -12q38 -7 76.5 -12.5t86.5 -7.5q3 -23 3 -44q0 -81 -38.5 -132t-110.5 -51q-7 0 -18.5 1.5t-25.5 3.5l-27 4l-24 4q-26 5 -54.5 8.5t-60.5 3.5q-73 0 -138.5 -24t-120.5 -65t-99.5 -96t-75.5 -117.5t-47.5 -129t-16.5 -130.5q0 -90 31 -155t81.5 -113.5t115 -85 t131.5 -70.5q65 -32 126.5 -67.5t109.5 -82t77.5 -108.5t29.5 -146q0 -49 -12.5 -100.5t-36 -100t-56 -91.5t-71.5 -75t-84.5 -50.5t-93.5 -18.5q-39 0 -69.5 11.5t-52.5 32.5t-33.5 49.5t-11.5 62.5q0 33 10 62zM693 1213q-45 0 -96.5 -22t-101.5 -64t-96 -101t-80.5 -134 t-55.5 -163t-21 -187q0 -164 61 -255.5t186 -91.5q47 0 102 16.5t114 67.5t120 146t121 251q-12 105 -31 202.5t-48.5 171.5t-72 118.5t-101.5 44.5zM870 1568q-33 51 -70.5 111t-74.5 123t-71.5 124t-60.5 115t-41.5 96t-15.5 66q0 18 12 38.5t32 42.5t45 43.5t52 41.5 l44 -12q34 -175 84.5 -363.5t128.5 -393.5z" />
<glyph unicode="&#x1fb6;&#x3c2;" horiz-adv-x="2623" d="M1958 -386q63 -20 130 -20q45 0 89 10t78.5 30.5t55.5 51.5t21 73q0 39 -19 69t-51 54t-75.5 45t-92.5 43q-53 24 -108.5 52t-107 67t-97.5 91.5t-80 124.5h-9q-63 -178 -159.5 -268t-211.5 -90q-62 0 -116.5 24t-98.5 76t-75.5 134t-47.5 198h-6q-75 -138 -146.5 -223 t-135.5 -131.5t-119 -62.5t-98 -16q-86 0 -152.5 45.5t-112.5 123.5t-70 183.5t-24 225.5q0 121 21 237t59 220t90.5 191.5t115 151.5t132.5 99.5t144 35.5q55 0 97.5 -23.5t75 -64.5t57 -98t42.5 -124t31 -141.5t24 -150.5l6 -1q33 109 65 242t66 292q6 30 39.5 46t81.5 16 q34 0 70.5 -8.5t69.5 -27.5q-46 -139 -90.5 -261.5t-87.5 -231t-85 -205t-84 -183.5q14 -98 41 -165.5t64.5 -110t83.5 -61.5t99 -19q63 0 117 29t93.5 76.5t61.5 108t22 122.5q0 22 -4.5 56t-4.5 97q0 92 19 186t56.5 181.5t93 164.5t128 134t162 90t194.5 33q43 0 82.5 -5 t79.5 -12q38 -7 76.5 -12.5t86.5 -7.5q3 -23 3 -44q0 -81 -38.5 -132t-110.5 -51q-7 0 -18.5 1.5t-25.5 3.5l-27 4l-24 4q-26 5 -54.5 8.5t-60.5 3.5q-73 0 -138.5 -24t-120.5 -65t-99.5 -96t-75.5 -117.5t-47.5 -129t-16.5 -130.5q0 -90 31 -155t81.5 -113.5t115 -85 t131.5 -70.5q65 -32 126.5 -67.5t109.5 -82t77.5 -108.5t29.5 -146q0 -49 -12.5 -100.5t-36 -100t-56 -91.5t-71.5 -75t-84.5 -50.5t-93.5 -18.5q-39 0 -69.5 11.5t-52.5 32.5t-33.5 49.5t-11.5 62.5q0 33 10 62zM693 1213q-45 0 -96.5 -22t-101.5 -64t-96 -101t-80.5 -134 t-55.5 -163t-21 -187q0 -164 61 -255.5t186 -91.5q47 0 102 16.5t114 67.5t120 146t121 251q-12 105 -31 202.5t-48.5 171.5t-72 118.5t-101.5 44.5zM1412 2164q-33 -110 -73.5 -182.5t-85 -116t-90 -61t-87.5 -17.5q-58 0 -115 18.5t-111.5 40.5t-105.5 40.5t-98 18.5 q-30 0 -59 -9t-56.5 -30.5t-53 -57t-47.5 -88.5l-70 19q30 105 70.5 173.5t86 108.5t93.5 55.5t94 15.5q51 0 102.5 -14t102 -31t99.5 -31t96 -14q43 0 81 15t69 40.5t55 59t40 70.5z" />
<glyph unicode="&#x1fb1;&#x3c2;" horiz-adv-x="2623" d="M1958 -386q63 -20 130 -20q45 0 89 10t78.5 30.5t55.5 51.5t21 73q0 39 -19 69t-51 54t-75.5 45t-92.5 43q-53 24 -108.5 52t-107 67t-97.5 91.5t-80 124.5h-9q-63 -178 -159.5 -268t-211.5 -90q-62 0 -116.5 24t-98.5 76t-75.5 134t-47.5 198h-6q-75 -138 -146.5 -223 t-135.5 -131.5t-119 -62.5t-98 -16q-86 0 -152.5 45.5t-112.5 123.5t-70 183.5t-24 225.5q0 121 21 237t59 220t90.5 191.5t115 151.5t132.5 99.5t144 35.5q55 0 97.5 -23.5t75 -64.5t57 -98t42.5 -124t31 -141.5t24 -150.5l6 -1q33 109 65 242t66 292q6 30 39.5 46t81.5 16 q34 0 70.5 -8.5t69.5 -27.5q-46 -139 -90.5 -261.5t-87.5 -231t-85 -205t-84 -183.5q14 -98 41 -165.5t64.5 -110t83.5 -61.5t99 -19q63 0 117 29t93.5 76.5t61.5 108t22 122.5q0 22 -4.5 56t-4.5 97q0 92 19 186t56.5 181.5t93 164.5t128 134t162 90t194.5 33q43 0 82.5 -5 t79.5 -12q38 -7 76.5 -12.5t86.5 -7.5q3 -23 3 -44q0 -81 -38.5 -132t-110.5 -51q-7 0 -18.5 1.5t-25.5 3.5l-27 4l-24 4q-26 5 -54.5 8.5t-60.5 3.5q-73 0 -138.5 -24t-120.5 -65t-99.5 -96t-75.5 -117.5t-47.5 -129t-16.5 -130.5q0 -90 31 -155t81.5 -113.5t115 -85 t131.5 -70.5q65 -32 126.5 -67.5t109.5 -82t77.5 -108.5t29.5 -146q0 -49 -12.5 -100.5t-36 -100t-56 -91.5t-71.5 -75t-84.5 -50.5t-93.5 -18.5q-39 0 -69.5 11.5t-52.5 32.5t-33.5 49.5t-11.5 62.5q0 33 10 62zM693 1213q-45 0 -96.5 -22t-101.5 -64t-96 -101t-80.5 -134 t-55.5 -163t-21 -187q0 -164 61 -255.5t186 -91.5q47 0 102 16.5t114 67.5t120 146t121 251q-12 105 -31 202.5t-48.5 171.5t-72 118.5t-101.5 44.5zM1278 2025q10 -24 13.5 -42t3.5 -36q0 -26 -9.5 -42t-30 -25t-53 -12t-77.5 -3q-69 0 -178.5 3.5t-249.5 3.5 q-67 0 -132.5 -4.5t-131.5 -24.5q0 56 23 90t64.5 52.5t99.5 24.5t128 6q33 0 71.5 -1t79.5 -1.5t83 -1.5t81 -1q60 0 114.5 3t100.5 11z" />
<glyph unicode="&#x1fb0;&#x3c2;" horiz-adv-x="2623" d="M1958 -386q63 -20 130 -20q45 0 89 10t78.5 30.5t55.5 51.5t21 73q0 39 -19 69t-51 54t-75.5 45t-92.5 43q-53 24 -108.5 52t-107 67t-97.5 91.5t-80 124.5h-9q-63 -178 -159.5 -268t-211.5 -90q-62 0 -116.5 24t-98.5 76t-75.5 134t-47.5 198h-6q-75 -138 -146.5 -223 t-135.5 -131.5t-119 -62.5t-98 -16q-86 0 -152.5 45.5t-112.5 123.5t-70 183.5t-24 225.5q0 121 21 237t59 220t90.5 191.5t115 151.5t132.5 99.5t144 35.5q55 0 97.5 -23.5t75 -64.5t57 -98t42.5 -124t31 -141.5t24 -150.5l6 -1q33 109 65 242t66 292q6 30 39.5 46t81.5 16 q34 0 70.5 -8.5t69.5 -27.5q-46 -139 -90.5 -261.5t-87.5 -231t-85 -205t-84 -183.5q14 -98 41 -165.5t64.5 -110t83.5 -61.5t99 -19q63 0 117 29t93.5 76.5t61.5 108t22 122.5q0 22 -4.5 56t-4.5 97q0 92 19 186t56.5 181.5t93 164.5t128 134t162 90t194.5 33q43 0 82.5 -5 t79.5 -12q38 -7 76.5 -12.5t86.5 -7.5q3 -23 3 -44q0 -81 -38.5 -132t-110.5 -51q-7 0 -18.5 1.5t-25.5 3.5l-27 4l-24 4q-26 5 -54.5 8.5t-60.5 3.5q-73 0 -138.5 -24t-120.5 -65t-99.5 -96t-75.5 -117.5t-47.5 -129t-16.5 -130.5q0 -90 31 -155t81.5 -113.5t115 -85 t131.5 -70.5q65 -32 126.5 -67.5t109.5 -82t77.5 -108.5t29.5 -146q0 -49 -12.5 -100.5t-36 -100t-56 -91.5t-71.5 -75t-84.5 -50.5t-93.5 -18.5q-39 0 -69.5 11.5t-52.5 32.5t-33.5 49.5t-11.5 62.5q0 33 10 62zM693 1213q-45 0 -96.5 -22t-101.5 -64t-96 -101t-80.5 -134 t-55.5 -163t-21 -187q0 -164 61 -255.5t186 -91.5q47 0 102 16.5t114 67.5t120 146t121 251q-12 105 -31 202.5t-48.5 171.5t-72 118.5t-101.5 44.5zM1317 2187q-18 -98 -54 -186t-93 -154t-136 -105t-182 -39q-95 0 -166.5 34.5t-119.5 96t-72 146t-24 183.5v8v6.5t1 9.5 l64 13q11 -65 36 -117t65 -89t96 -56.5t129 -19.5q69 0 129 19t109.5 55.5t86.5 89t59 119.5z" />
<glyph unicode="&#x3b3;&#x3b3;" horiz-adv-x="2574" d="M1507 -866q13 83 34.5 179.5t48.5 200t58.5 211t64.5 211.5q13 40 13 80q-3 170 -30 322t-66 280.5t-85 231.5t-87.5 175t-72.5 110.5t-41 38.5q-14 0 -56.5 -52t-101.5 -142t-129 -209.5t-139.5 -255t-132.5 -279t-108 -280.5q-3 -211 -25 -421t-67 -407l-229 -25l-21 1 q15 97 37.5 200.5t50 209t59 212t64.5 210.5q13 40 13 80q0 64 -4 148t-13 179t-24.5 194.5t-38 193.5t-53 178t-70.5 146.5t-90.5 99t-112.5 36.5q-36 0 -74 -11t-70 -37l-14 5q-19 44 -19 91q0 44 16 83t44.5 68t67.5 46t84 17q67 0 125.5 -43.5t108 -122.5t90 -189.5 t70.5 -244.5t49.5 -287.5t27.5 -318.5h5q31 87 71 185t85.5 199.5t94.5 201.5t97.5 191.5t95.5 170t87.5 136t74 90.5t55.5 33q24 0 66 -43t92.5 -121.5t105 -188.5t102 -244t84 -288.5t51.5 -321.5h5q52 141 106 273.5t105.5 250t98.5 218.5t86 180t67.5 134t43.5 81 q22 40 49.5 54t70.5 14q45 0 91 -18t83 -43q-121 -155 -232 -326t-210.5 -353.5t-186.5 -372.5t-159 -383q-2 -104 -8.5 -210.5t-17.5 -209.5t-26 -199t-34 -179l-230 -25z" />
<glyph unicode="&#x3b3;&#x3b7;" horiz-adv-x="2616" d="M2039 -887l-21 1q72 336 121.5 622t80 514.5t44 397t13.5 269.5q0 80 -9 136t-25 91t-38 51t-48 16q-59 0 -135 -76.5t-152.5 -228.5t-144.5 -379t-112 -527l-202 -25l-22 1q25 115 48 227t40 220t27.5 211.5t10.5 201.5q0 96 -15 162t-35.5 107t-42.5 59.5t-37 18.5 q-35 0 -87 -52t-114.5 -141.5t-131 -209.5t-135.5 -256.5t-129 -282t-111 -285.5q-3 -211 -25 -421t-67 -407l-229 -25l-21 1q15 97 37.5 200.5t50 209t59 212t64.5 210.5q13 40 13 80q0 64 -4 148t-13 179t-24.5 194.5t-38 193.5t-53.5 178t-71 146.5t-90 99t-112 36.5 q-36 0 -74 -11t-70 -37l-14 5q-19 44 -19 91q0 44 16 83t44.5 68t67.5 46t84 17q67 0 125.5 -43.5t108 -122.5t90 -189.5t70.5 -244.5t49.5 -287.5t27.5 -318.5h5q104 288 208 511.5t198 376t173.5 231.5t133.5 79q10 0 33 -5.5t52 -23t59.5 -49.5t56 -85t42 -129.5 t16.5 -183.5q0 -23 -2.5 -63t-6.5 -86.5t-9 -93.5t-10 -82l11 -1q67 200 141 352.5t147.5 255.5t143.5 155.5t129 52.5q53 0 96.5 -34t74.5 -103.5t48 -175.5t17 -251q0 -126 -9.5 -293.5t-29.5 -383.5t-51 -484.5t-74 -595.5z" />
<glyph unicode="&#x3b3;&#x3ae;" horiz-adv-x="2616" d="M2039 -887l-21 1q72 336 121.5 622t80 514.5t44 397t13.5 269.5q0 80 -9 136t-25 91t-38 51t-48 16q-59 0 -135 -76.5t-152.5 -228.5t-144.5 -379t-112 -527l-202 -25l-22 1q25 115 48 227t40 220t27.5 211.5t10.5 201.5q0 96 -15 162t-35.5 107t-42.5 59.5t-37 18.5 q-35 0 -87 -52t-114.5 -141.5t-131 -209.5t-135.5 -256.5t-129 -282t-111 -285.5q-3 -211 -25 -421t-67 -407l-229 -25l-21 1q15 97 37.5 200.5t50 209t59 212t64.5 210.5q13 40 13 80q0 64 -4 148t-13 179t-24.5 194.5t-38 193.5t-53.5 178t-71 146.5t-90 99t-112 36.5 q-36 0 -74 -11t-70 -37l-14 5q-19 44 -19 91q0 44 16 83t44.5 68t67.5 46t84 17q67 0 125.5 -43.5t108 -122.5t90 -189.5t70.5 -244.5t49.5 -287.5t27.5 -318.5h5q104 288 208 511.5t198 376t173.5 231.5t133.5 79q10 0 33 -5.5t52 -23t59.5 -49.5t56 -85t42 -129.5 t16.5 -183.5q0 -23 -2.5 -63t-6.5 -86.5t-9 -93.5t-10 -82l11 -1q67 200 141 352.5t147.5 255.5t143.5 155.5t129 52.5q53 0 96.5 -34t74.5 -103.5t48 -175.5t17 -251q0 -126 -9.5 -293.5t-29.5 -383.5t-51 -484.5t-74 -595.5zM1832 1599q109 203 186 393t134 365l47 12 q28 -19 51 -42.5t39.5 -47t26 -44.5t9.5 -34q0 -21 -19 -61.5t-52 -92.5t-76 -113.5t-91 -124.5t-98 -125t-96 -116z" />
<glyph unicode="&#x3b3;&#x1f74;" horiz-adv-x="2616" d="M2039 -887l-21 1q72 336 121.5 622t80 514.5t44 397t13.5 269.5q0 80 -9 136t-25 91t-38 51t-48 16q-59 0 -135 -76.5t-152.5 -228.5t-144.5 -379t-112 -527l-202 -25l-22 1q25 115 48 227t40 220t27.5 211.5t10.5 201.5q0 96 -15 162t-35.5 107t-42.5 59.5t-37 18.5 q-35 0 -87 -52t-114.5 -141.5t-131 -209.5t-135.5 -256.5t-129 -282t-111 -285.5q-3 -211 -25 -421t-67 -407l-229 -25l-21 1q15 97 37.5 200.5t50 209t59 212t64.5 210.5q13 40 13 80q0 64 -4 148t-13 179t-24.5 194.5t-38 193.5t-53.5 178t-71 146.5t-90 99t-112 36.5 q-36 0 -74 -11t-70 -37l-14 5q-19 44 -19 91q0 44 16 83t44.5 68t67.5 46t84 17q67 0 125.5 -43.5t108 -122.5t90 -189.5t70.5 -244.5t49.5 -287.5t27.5 -318.5h5q104 288 208 511.5t198 376t173.5 231.5t133.5 79q10 0 33 -5.5t52 -23t59.5 -49.5t56 -85t42 -129.5 t16.5 -183.5q0 -23 -2.5 -63t-6.5 -86.5t-9 -93.5t-10 -82l11 -1q67 200 141 352.5t147.5 255.5t143.5 155.5t129 52.5q53 0 96.5 -34t74.5 -103.5t48 -175.5t17 -251q0 -126 -9.5 -293.5t-29.5 -383.5t-51 -484.5t-74 -595.5zM1962 1568q-33 51 -70.5 111t-74.5 123 t-71.5 124t-60.5 115t-41.5 96t-15.5 66q0 18 12 38.5t32 42.5t45 43.5t52 41.5l44 -12q34 -175 84.5 -363.5t128.5 -393.5z" />
<glyph unicode="&#x3b3;&#x1fc6;" horiz-adv-x="2616" d="M2039 -887l-21 1q72 336 121.5 622t80 514.5t44 397t13.5 269.5q0 80 -9 136t-25 91t-38 51t-48 16q-59 0 -135 -76.5t-152.5 -228.5t-144.5 -379t-112 -527l-202 -25l-22 1q25 115 48 227t40 220t27.5 211.5t10.5 201.5q0 96 -15 162t-35.5 107t-42.5 59.5t-37 18.5 q-35 0 -87 -52t-114.5 -141.5t-131 -209.5t-135.5 -256.5t-129 -282t-111 -285.5q-3 -211 -25 -421t-67 -407l-229 -25l-21 1q15 97 37.5 200.5t50 209t59 212t64.5 210.5q13 40 13 80q0 64 -4 148t-13 179t-24.5 194.5t-38 193.5t-53.5 178t-71 146.5t-90 99t-112 36.5 q-36 0 -74 -11t-70 -37l-14 5q-19 44 -19 91q0 44 16 83t44.5 68t67.5 46t84 17q67 0 125.5 -43.5t108 -122.5t90 -189.5t70.5 -244.5t49.5 -287.5t27.5 -318.5h5q104 288 208 511.5t198 376t173.5 231.5t133.5 79q10 0 33 -5.5t52 -23t59.5 -49.5t56 -85t42 -129.5 t16.5 -183.5q0 -23 -2.5 -63t-6.5 -86.5t-9 -93.5t-10 -82l11 -1q67 200 141 352.5t147.5 255.5t143.5 155.5t129 52.5q53 0 96.5 -34t74.5 -103.5t48 -175.5t17 -251q0 -126 -9.5 -293.5t-29.5 -383.5t-51 -484.5t-74 -595.5zM2504 2164q-33 -110 -73.5 -182.5t-85 -116 t-90 -61t-87.5 -17.5q-58 0 -115 18.5t-111.5 40.5t-105.5 40.5t-98 18.5q-30 0 -59 -9t-56.5 -30.5t-53 -57t-47.5 -88.5l-70 19q30 105 70.5 173.5t86 108.5t93.5 55.5t94 15.5q51 0 102.5 -14t102 -31t99.5 -31t96 -14q43 0 81 15t69 40.5t55 59t40 70.5z" />
<glyph unicode="&#x3b3;&#x1fc3;" horiz-adv-x="2616" d="M2039 -887l-21 1q72 336 121.5 622t80 514.5t44 397t13.5 269.5q0 80 -9 136t-25 91t-38 51t-48 16q-59 0 -135 -76.5t-152.5 -228.5t-144.5 -379t-112 -527l-202 -25l-22 1q25 115 48 227t40 220t27.5 211.5t10.5 201.5q0 96 -15 162t-35.5 107t-42.5 59.5t-37 18.5 q-35 0 -87 -52t-114.5 -141.5t-131 -209.5t-135.5 -256.5t-129 -282t-111 -285.5q-3 -211 -25 -421t-67 -407l-229 -25l-21 1q15 97 37.5 200.5t50 209t59 212t64.5 210.5q13 40 13 80q0 64 -4 148t-13 179t-24.5 194.5t-38 193.5t-53.5 178t-71 146.5t-90 99t-112 36.5 q-36 0 -74 -11t-70 -37l-14 5q-19 44 -19 91q0 44 16 83t44.5 68t67.5 46t84 17q67 0 125.5 -43.5t108 -122.5t90 -189.5t70.5 -244.5t49.5 -287.5t27.5 -318.5h5q104 288 208 511.5t198 376t173.5 231.5t133.5 79q10 0 33 -5.5t52 -23t59.5 -49.5t56 -85t42 -129.5 t16.5 -183.5q0 -23 -2.5 -63t-6.5 -86.5t-9 -93.5t-10 -82l11 -1q67 200 141 352.5t147.5 255.5t143.5 155.5t129 52.5q53 0 96.5 -34t74.5 -103.5t48 -175.5t17 -251q0 -126 -9.5 -293.5t-29.5 -383.5t-51 -484.5t-74 -595.5zM1739 -831q-52 -26 -100.5 -38t-93.5 -12 q-66 0 -112.5 22t-76 60.5t-43 89.5t-13.5 108q0 52 10 107t29 108t45.5 102.5t58.5 90.5l132 14l19 -1q-21 -35 -38.5 -77t-30 -86.5t-19.5 -89t-7 -83.5q0 -48 12 -91t39.5 -77t71.5 -56.5t108 -29.5z" />
<glyph unicode="&#x3b3;&#x1fc4;" horiz-adv-x="2616" d="M2039 -887l-21 1q72 336 121.5 622t80 514.5t44 397t13.5 269.5q0 80 -9 136t-25 91t-38 51t-48 16q-59 0 -135 -76.5t-152.5 -228.5t-144.5 -379t-112 -527l-202 -25l-22 1q25 115 48 227t40 220t27.5 211.5t10.5 201.5q0 96 -15 162t-35.5 107t-42.5 59.5t-37 18.5 q-35 0 -87 -52t-114.5 -141.5t-131 -209.5t-135.5 -256.5t-129 -282t-111 -285.5q-3 -211 -25 -421t-67 -407l-229 -25l-21 1q15 97 37.5 200.5t50 209t59 212t64.5 210.5q13 40 13 80q0 64 -4 148t-13 179t-24.5 194.5t-38 193.5t-53.5 178t-71 146.5t-90 99t-112 36.5 q-36 0 -74 -11t-70 -37l-14 5q-19 44 -19 91q0 44 16 83t44.5 68t67.5 46t84 17q67 0 125.5 -43.5t108 -122.5t90 -189.5t70.5 -244.5t49.5 -287.5t27.5 -318.5h5q104 288 208 511.5t198 376t173.5 231.5t133.5 79q10 0 33 -5.5t52 -23t59.5 -49.5t56 -85t42 -129.5 t16.5 -183.5q0 -23 -2.5 -63t-6.5 -86.5t-9 -93.5t-10 -82l11 -1q67 200 141 352.5t147.5 255.5t143.5 155.5t129 52.5q53 0 96.5 -34t74.5 -103.5t48 -175.5t17 -251q0 -126 -9.5 -293.5t-29.5 -383.5t-51 -484.5t-74 -595.5zM1832 1599q109 203 186 393t134 365l47 12 q28 -19 51 -42.5t39.5 -47t26 -44.5t9.5 -34q0 -21 -19 -61.5t-52 -92.5t-76 -113.5t-91 -124.5t-98 -125t-96 -116zM1739 -831q-52 -26 -100.5 -38t-93.5 -12q-66 0 -112.5 22t-76 60.5t-43 89.5t-13.5 108q0 52 10 107t29 108t45.5 102.5t58.5 90.5l132 14l19 -1 q-21 -35 -38.5 -77t-30 -86.5t-19.5 -89t-7 -83.5q0 -48 12 -91t39.5 -77t71.5 -56.5t108 -29.5z" />
<glyph unicode="&#x3b3;&#x1fc2;" horiz-adv-x="2616" d="M2039 -887l-21 1q72 336 121.5 622t80 514.5t44 397t13.5 269.5q0 80 -9 136t-25 91t-38 51t-48 16q-59 0 -135 -76.5t-152.5 -228.5t-144.5 -379t-112 -527l-202 -25l-22 1q25 115 48 227t40 220t27.5 211.5t10.5 201.5q0 96 -15 162t-35.5 107t-42.5 59.5t-37 18.5 q-35 0 -87 -52t-114.5 -141.5t-131 -209.5t-135.5 -256.5t-129 -282t-111 -285.5q-3 -211 -25 -421t-67 -407l-229 -25l-21 1q15 97 37.5 200.5t50 209t59 212t64.5 210.5q13 40 13 80q0 64 -4 148t-13 179t-24.5 194.5t-38 193.5t-53.5 178t-71 146.5t-90 99t-112 36.5 q-36 0 -74 -11t-70 -37l-14 5q-19 44 -19 91q0 44 16 83t44.5 68t67.5 46t84 17q67 0 125.5 -43.5t108 -122.5t90 -189.5t70.5 -244.5t49.5 -287.5t27.5 -318.5h5q104 288 208 511.5t198 376t173.5 231.5t133.5 79q10 0 33 -5.5t52 -23t59.5 -49.5t56 -85t42 -129.5 t16.5 -183.5q0 -23 -2.5 -63t-6.5 -86.5t-9 -93.5t-10 -82l11 -1q67 200 141 352.5t147.5 255.5t143.5 155.5t129 52.5q53 0 96.5 -34t74.5 -103.5t48 -175.5t17 -251q0 -126 -9.5 -293.5t-29.5 -383.5t-51 -484.5t-74 -595.5zM1962 1568q-33 51 -70.5 111t-74.5 123 t-71.5 124t-60.5 115t-41.5 96t-15.5 66q0 18 12 38.5t32 42.5t45 43.5t52 41.5l44 -12q34 -175 84.5 -363.5t128.5 -393.5zM1739 -831q-52 -26 -100.5 -38t-93.5 -12q-66 0 -112.5 22t-76 60.5t-43 89.5t-13.5 108q0 52 10 107t29 108t45.5 102.5t58.5 90.5l132 14l19 -1 q-21 -35 -38.5 -77t-30 -86.5t-19.5 -89t-7 -83.5q0 -48 12 -91t39.5 -77t71.5 -56.5t108 -29.5z" />
<glyph unicode="&#x3b3;&#x1fc7;" horiz-adv-x="2616" d="M2039 -887l-21 1q72 336 121.5 622t80 514.5t44 397t13.5 269.5q0 80 -9 136t-25 91t-38 51t-48 16q-59 0 -135 -76.5t-152.5 -228.5t-144.5 -379t-112 -527l-202 -25l-22 1q25 115 48 227t40 220t27.5 211.5t10.5 201.5q0 96 -15 162t-35.5 107t-42.5 59.5t-37 18.5 q-35 0 -87 -52t-114.5 -141.5t-131 -209.5t-135.5 -256.5t-129 -282t-111 -285.5q-3 -211 -25 -421t-67 -407l-229 -25l-21 1q15 97 37.5 200.5t50 209t59 212t64.5 210.5q13 40 13 80q0 64 -4 148t-13 179t-24.5 194.5t-38 193.5t-53.5 178t-71 146.5t-90 99t-112 36.5 q-36 0 -74 -11t-70 -37l-14 5q-19 44 -19 91q0 44 16 83t44.5 68t67.5 46t84 17q67 0 125.5 -43.5t108 -122.5t90 -189.5t70.5 -244.5t49.5 -287.5t27.5 -318.5h5q104 288 208 511.5t198 376t173.5 231.5t133.5 79q10 0 33 -5.5t52 -23t59.5 -49.5t56 -85t42 -129.5 t16.5 -183.5q0 -23 -2.5 -63t-6.5 -86.5t-9 -93.5t-10 -82l11 -1q67 200 141 352.5t147.5 255.5t143.5 155.5t129 52.5q53 0 96.5 -34t74.5 -103.5t48 -175.5t17 -251q0 -126 -9.5 -293.5t-29.5 -383.5t-51 -484.5t-74 -595.5zM2504 2164q-33 -110 -73.5 -182.5t-85 -116 t-90 -61t-87.5 -17.5q-58 0 -115 18.5t-111.5 40.5t-105.5 40.5t-98 18.5q-30 0 -59 -9t-56.5 -30.5t-53 -57t-47.5 -88.5l-70 19q30 105 70.5 173.5t86 108.5t93.5 55.5t94 15.5q51 0 102.5 -14t102 -31t99.5 -31t96 -14q43 0 81 15t69 40.5t55 59t40 70.5zM1739 -831 q-52 -26 -100.5 -38t-93.5 -12q-66 0 -112.5 22t-76 60.5t-43 89.5t-13.5 108q0 52 10 107t29 108t45.5 102.5t58.5 90.5l132 14l19 -1q-21 -35 -38.5 -77t-30 -86.5t-19.5 -89t-7 -83.5q0 -48 12 -91t39.5 -77t71.5 -56.5t108 -29.5z" />
<glyph unicode="&#x3b3;&#x3bd;" horiz-adv-x="2410" d="M2197 1467q98 -188 98 -394q0 -521 -568 -1110l-130 16q-8 243 -22.5 426t-33 315t-40 219t-43.5 138t-43.5 71.5t-39.5 20.5q-26 0 -73 -45.5t-106 -127.5t-127 -195t-137 -248t-134.5 -286.5t-120.5 -310.5q-3 -211 -25 -421t-67 -407l-229 -25l-21 1q15 97 37.5 200.5 t50 209t59 212t64.5 210.5q13 40 13 80q0 64 -4 148t-13 179t-24.5 194.5t-38 193.5t-53.5 178t-71 146.5t-90 99t-112 36.5q-36 0 -74 -11t-70 -37l-14 5q-19 44 -19 91q0 44 16 83t44.5 68t67.5 46t84 17q67 0 125.5 -43.5t108 -122.5t90 -189.5t70.5 -244.5t49.5 -287.5 t27.5 -318.5h5q111 299 215.5 523t197.5 373t170.5 223t134.5 74q32 0 68.5 -14.5t72.5 -58t68.5 -124.5t57.5 -214t40 -326.5t15 -461.5l4 -1q106 137 184 260.5t129 243t76 239t25 248.5q0 96 -15 201z" />
<glyph unicode="&#x3b3;&#x3c5;" horiz-adv-x="2552" d="M2191 1447q54 -67 95.5 -148.5t70 -171t43.5 -183.5t15 -187q0 -94 -16.5 -190.5t-49 -186.5t-80.5 -169t-112 -137.5t-143.5 -92t-173.5 -33.5q-102 0 -181 43t-133 118.5t-82 178.5t-28 223q0 104 17.5 194.5t38 165.5t38 133.5t17.5 98.5q0 25 -11.5 43t-27 30 t-31 17.5t-24.5 5.5q-40 0 -94.5 -44t-118 -124.5t-133 -194t-140.5 -251.5t-139.5 -297t-130.5 -332q-3 -211 -25 -421t-67 -407l-229 -25l-21 1q15 97 37.5 200.5t50 209t59 212t64.5 210.5q13 40 13 80q0 64 -4 148t-13 179t-24.5 194.5t-38 193.5t-53.5 178t-71 146.5 t-90 99t-112 36.5q-36 0 -74 -11t-70 -37l-14 5q-19 44 -19 91q0 44 16 83t44.5 68t67.5 46t84 17q67 0 125.5 -43.5t108 -122.5t90 -189.5t70.5 -244.5t49.5 -287.5t27.5 -318.5h5q63 173 129.5 330t134 291t134.5 242.5t131 185t123 118t111 41.5q43 0 86.5 -14t79 -42 t58 -68.5t22.5 -92.5q0 -54 -18 -125t-39.5 -155t-39.5 -179.5t-18 -198.5q0 -75 12.5 -144t43 -122.5t82.5 -85.5t132 -32q106 0 184 55.5t129 145.5t75.5 204t24.5 231q0 78 -9 156.5t-26.5 152t-42.5 139.5t-57 120z" />
<glyph unicode="&#x3b3;&#x3cd;" horiz-adv-x="2552" d="M2191 1447q54 -67 95.5 -148.5t70 -171t43.5 -183.5t15 -187q0 -94 -16.5 -190.5t-49 -186.5t-80.5 -169t-112 -137.5t-143.5 -92t-173.5 -33.5q-102 0 -181 43t-133 118.5t-82 178.5t-28 223q0 104 17.5 194.5t38 165.5t38 133.5t17.5 98.5q0 25 -11.5 43t-27 30 t-31 17.5t-24.5 5.5q-40 0 -94.5 -44t-118 -124.5t-133 -194t-140.5 -251.5t-139.5 -297t-130.5 -332q-3 -211 -25 -421t-67 -407l-229 -25l-21 1q15 97 37.5 200.5t50 209t59 212t64.5 210.5q13 40 13 80q0 64 -4 148t-13 179t-24.5 194.5t-38 193.5t-53.5 178t-71 146.5 t-90 99t-112 36.5q-36 0 -74 -11t-70 -37l-14 5q-19 44 -19 91q0 44 16 83t44.5 68t67.5 46t84 17q67 0 125.5 -43.5t108 -122.5t90 -189.5t70.5 -244.5t49.5 -287.5t27.5 -318.5h5q63 173 129.5 330t134 291t134.5 242.5t131 185t123 118t111 41.5q43 0 86.5 -14t79 -42 t58 -68.5t22.5 -92.5q0 -54 -18 -125t-39.5 -155t-39.5 -179.5t-18 -198.5q0 -75 12.5 -144t43 -122.5t82.5 -85.5t132 -32q106 0 184 55.5t129 145.5t75.5 204t24.5 231q0 78 -9 156.5t-26.5 152t-42.5 139.5t-57 120zM1777 1599q109 203 186 393t134 365l47 12 q28 -19 51 -42.5t39.5 -47t26 -44.5t9.5 -34q0 -21 -19 -61.5t-52 -92.5t-76 -113.5t-91 -124.5t-98 -125t-96 -116z" />
<glyph unicode="&#x3b3;&#x1f7a;" horiz-adv-x="2552" d="M2191 1447q54 -67 95.5 -148.5t70 -171t43.5 -183.5t15 -187q0 -94 -16.5 -190.5t-49 -186.5t-80.5 -169t-112 -137.5t-143.5 -92t-173.5 -33.5q-102 0 -181 43t-133 118.5t-82 178.5t-28 223q0 104 17.5 194.5t38 165.5t38 133.5t17.5 98.5q0 25 -11.5 43t-27 30 t-31 17.5t-24.5 5.5q-40 0 -94.5 -44t-118 -124.5t-133 -194t-140.5 -251.5t-139.5 -297t-130.5 -332q-3 -211 -25 -421t-67 -407l-229 -25l-21 1q15 97 37.5 200.5t50 209t59 212t64.5 210.5q13 40 13 80q0 64 -4 148t-13 179t-24.5 194.5t-38 193.5t-53.5 178t-71 146.5 t-90 99t-112 36.5q-36 0 -74 -11t-70 -37l-14 5q-19 44 -19 91q0 44 16 83t44.5 68t67.5 46t84 17q67 0 125.5 -43.5t108 -122.5t90 -189.5t70.5 -244.5t49.5 -287.5t27.5 -318.5h5q63 173 129.5 330t134 291t134.5 242.5t131 185t123 118t111 41.5q43 0 86.5 -14t79 -42 t58 -68.5t22.5 -92.5q0 -54 -18 -125t-39.5 -155t-39.5 -179.5t-18 -198.5q0 -75 12.5 -144t43 -122.5t82.5 -85.5t132 -32q106 0 184 55.5t129 145.5t75.5 204t24.5 231q0 78 -9 156.5t-26.5 152t-42.5 139.5t-57 120zM1907 1568q-33 51 -70.5 111t-74.5 123t-71.5 124 t-60.5 115t-41.5 96t-15.5 66q0 18 12 38.5t32 42.5t45 43.5t52 41.5l44 -12q34 -175 84.5 -363.5t128.5 -393.5z" />
<glyph unicode="&#x3b3;&#x1fe6;" horiz-adv-x="2552" d="M2191 1447q54 -67 95.5 -148.5t70 -171t43.5 -183.5t15 -187q0 -94 -16.5 -190.5t-49 -186.5t-80.5 -169t-112 -137.5t-143.5 -92t-173.5 -33.5q-102 0 -181 43t-133 118.5t-82 178.5t-28 223q0 104 17.5 194.5t38 165.5t38 133.5t17.5 98.5q0 25 -11.5 43t-27 30 t-31 17.5t-24.5 5.5q-40 0 -94.5 -44t-118 -124.5t-133 -194t-140.5 -251.5t-139.5 -297t-130.5 -332q-3 -211 -25 -421t-67 -407l-229 -25l-21 1q15 97 37.5 200.5t50 209t59 212t64.5 210.5q13 40 13 80q0 64 -4 148t-13 179t-24.5 194.5t-38 193.5t-53.5 178t-71 146.5 t-90 99t-112 36.5q-36 0 -74 -11t-70 -37l-14 5q-19 44 -19 91q0 44 16 83t44.5 68t67.5 46t84 17q67 0 125.5 -43.5t108 -122.5t90 -189.5t70.5 -244.5t49.5 -287.5t27.5 -318.5h5q63 173 129.5 330t134 291t134.5 242.5t131 185t123 118t111 41.5q43 0 86.5 -14t79 -42 t58 -68.5t22.5 -92.5q0 -54 -18 -125t-39.5 -155t-39.5 -179.5t-18 -198.5q0 -75 12.5 -144t43 -122.5t82.5 -85.5t132 -32q106 0 184 55.5t129 145.5t75.5 204t24.5 231q0 78 -9 156.5t-26.5 152t-42.5 139.5t-57 120zM2449 2164q-33 -110 -73.5 -182.5t-85 -116t-90 -61 t-87.5 -17.5q-58 0 -115 18.5t-111.5 40.5t-105.5 40.5t-98 18.5q-30 0 -59 -9t-56.5 -30.5t-53 -57t-47.5 -88.5l-70 19q30 105 70.5 173.5t86 108.5t93.5 55.5t94 15.5q51 0 102.5 -14t102 -31t99.5 -31t96 -14q43 0 81 15t69 40.5t55 59t40 70.5z" />
<glyph unicode="&#x3b8;&#x3b1;" horiz-adv-x="2984" d="M2927 283q2 -16 3 -31t1 -29q0 -67 -19.5 -117t-51.5 -83t-72 -49.5t-80 -16.5q-62 0 -104.5 29t-71 83t-46 132.5t-29.5 177.5h-6q-75 -138 -146.5 -223t-135.5 -131.5t-119 -62.5t-98 -16q-86 0 -152.5 45.5t-112.5 123.5t-70 183.5t-24 225.5q0 92 13 183t36.5 176 t57.5 161t76 138l-4 5q-131 -22 -262.5 -32.5t-240.5 -12.5q-11 -175 -37.5 -331.5t-66.5 -289.5t-92.5 -239t-115.5 -180.5t-136 -114.5t-153 -40q-79 0 -144 38.5t-112 113t-73 183.5t-26 249q0 20 1 43t1 56q0 22 -9.5 40.5t-26 31.5t-38 20t-45.5 7q-30 0 -61.5 -12.5 t-59.5 -41.5l-16 5q-19 54 -19 99q0 58 19 100t49.5 69.5t69.5 41t79 13.5q38 0 73.5 -11.5t63.5 -35t44.5 -57.5t16.5 -79q0 -21 -3 -47t-7 -61t-7 -81t-3 -107q0 -76 15 -137t44 -104t71.5 -66t96.5 -23q82 0 159 62t139.5 182t107 296.5t62.5 406.5q-242 3 -406 44 t-264.5 120t-143.5 195.5t-43 269.5q0 101 17.5 201t50 192t78.5 171t104.5 137t127 91.5t145.5 33.5q100 0 187.5 -74t152.5 -224.5t102.5 -380t37.5 -540.5v-8q51 0 124 3.5t153.5 9t162.5 13t152 16t122 17t73 16.5q45 15 92 15q55 0 97.5 -23.5t75 -64.5t57 -98 t42.5 -124t31 -141.5t24 -150.5l6 -1q33 109 65 242t66 292q6 30 39.5 46t81.5 16q34 0 70.5 -8.5t69.5 -27.5q-46 -139 -90.5 -261.5t-87.5 -231t-85 -205t-84 -183.5q13 -71 30 -132t40.5 -105.5t55.5 -69.5t74 -25q15 0 35.5 2.5t44 11t49 25.5t52.5 46zM1141 1429 q0 122 -9.5 237.5t-28.5 218t-49 188t-70.5 147t-93 96t-116.5 34.5q-51 0 -99.5 -21t-91.5 -58.5t-79 -88t-62 -109.5t-40.5 -124t-14.5 -130q0 -67 13.5 -126t46.5 -108.5t88.5 -89t139.5 -67t198.5 -43t266.5 -17.5q1 8 1 15v15v31zM2166 1217q-46 0 -97 -22.5 t-101 -64.5t-95.5 -102t-80.5 -135t-55.5 -163.5t-20.5 -187.5q0 -164 61 -255.5t186 -91.5q47 0 102 16.5t114 67.5t120 146t121 251q-12 105 -31 203t-48.5 173t-72 120t-102.5 45z" />
<glyph unicode="&#x3b8;&#x3ac;" horiz-adv-x="2984" d="M2927 283q2 -16 3 -31t1 -29q0 -67 -19.5 -117t-51.5 -83t-72 -49.5t-80 -16.5q-62 0 -104.5 29t-71 83t-46 132.5t-29.5 177.5h-6q-75 -138 -146.5 -223t-135.5 -131.5t-119 -62.5t-98 -16q-86 0 -152.5 45.5t-112.5 123.5t-70 183.5t-24 225.5q0 92 13 183t36.5 176 t57.5 161t76 138l-4 5q-131 -22 -262.5 -32.5t-240.5 -12.5q-11 -175 -37.5 -331.5t-66.5 -289.5t-92.5 -239t-115.5 -180.5t-136 -114.5t-153 -40q-79 0 -144 38.5t-112 113t-73 183.5t-26 249q0 20 1 43t1 56q0 22 -9.5 40.5t-26 31.5t-38 20t-45.5 7q-30 0 -61.5 -12.5 t-59.5 -41.5l-16 5q-19 54 -19 99q0 58 19 100t49.5 69.5t69.5 41t79 13.5q38 0 73.5 -11.5t63.5 -35t44.5 -57.5t16.5 -79q0 -21 -3 -47t-7 -61t-7 -81t-3 -107q0 -76 15 -137t44 -104t71.5 -66t96.5 -23q82 0 159 62t139.5 182t107 296.5t62.5 406.5q-242 3 -406 44 t-264.5 120t-143.5 195.5t-43 269.5q0 101 17.5 201t50 192t78.5 171t104.5 137t127 91.5t145.5 33.5q100 0 187.5 -74t152.5 -224.5t102.5 -380t37.5 -540.5v-8q51 0 124 3.5t153.5 9t162.5 13t152 16t122 17t73 16.5q45 15 92 15q55 0 97.5 -23.5t75 -64.5t57 -98 t42.5 -124t31 -141.5t24 -150.5l6 -1q33 109 65 242t66 292q6 30 39.5 46t81.5 16q34 0 70.5 -8.5t69.5 -27.5q-46 -139 -90.5 -261.5t-87.5 -231t-85 -205t-84 -183.5q13 -71 30 -132t40.5 -105.5t55.5 -69.5t74 -25q15 0 35.5 2.5t44 11t49 25.5t52.5 46zM1141 1429 q0 122 -9.5 237.5t-28.5 218t-49 188t-70.5 147t-93 96t-116.5 34.5q-51 0 -99.5 -21t-91.5 -58.5t-79 -88t-62 -109.5t-40.5 -124t-14.5 -130q0 -67 13.5 -126t46.5 -108.5t88.5 -89t139.5 -67t198.5 -43t266.5 -17.5q1 8 1 15v15v31zM2166 1217q-46 0 -97 -22.5 t-101 -64.5t-95.5 -102t-80.5 -135t-55.5 -163.5t-20.5 -187.5q0 -164 61 -255.5t186 -91.5q47 0 102 16.5t114 67.5t120 146t121 251q-12 105 -31 203t-48.5 173t-72 120t-102.5 45zM2214 1599q109 203 186 393t134 365l47 12q28 -19 51 -42.5t39.5 -47t26 -44.5t9.5 -34 q0 -21 -19 -61.5t-52 -92.5t-76 -113.5t-91 -124.5t-98 -125t-96 -116z" />
<glyph unicode="&#x3b8;&#x1f70;" horiz-adv-x="2984" d="M2927 283q2 -16 3 -31t1 -29q0 -67 -19.5 -117t-51.5 -83t-72 -49.5t-80 -16.5q-62 0 -104.5 29t-71 83t-46 132.5t-29.5 177.5h-6q-75 -138 -146.5 -223t-135.5 -131.5t-119 -62.5t-98 -16q-86 0 -152.5 45.5t-112.5 123.5t-70 183.5t-24 225.5q0 92 13 183t36.5 176 t57.5 161t76 138l-4 5q-131 -22 -262.5 -32.5t-240.5 -12.5q-11 -175 -37.5 -331.5t-66.5 -289.5t-92.5 -239t-115.5 -180.5t-136 -114.5t-153 -40q-79 0 -144 38.5t-112 113t-73 183.5t-26 249q0 20 1 43t1 56q0 22 -9.5 40.5t-26 31.5t-38 20t-45.5 7q-30 0 -61.5 -12.5 t-59.5 -41.5l-16 5q-19 54 -19 99q0 58 19 100t49.5 69.5t69.5 41t79 13.5q38 0 73.5 -11.5t63.5 -35t44.5 -57.5t16.5 -79q0 -21 -3 -47t-7 -61t-7 -81t-3 -107q0 -76 15 -137t44 -104t71.5 -66t96.5 -23q82 0 159 62t139.5 182t107 296.5t62.5 406.5q-242 3 -406 44 t-264.5 120t-143.5 195.5t-43 269.5q0 101 17.5 201t50 192t78.5 171t104.5 137t127 91.5t145.5 33.5q100 0 187.5 -74t152.5 -224.5t102.5 -380t37.5 -540.5v-8q51 0 124 3.5t153.5 9t162.5 13t152 16t122 17t73 16.5q45 15 92 15q55 0 97.5 -23.5t75 -64.5t57 -98 t42.5 -124t31 -141.5t24 -150.5l6 -1q33 109 65 242t66 292q6 30 39.5 46t81.5 16q34 0 70.5 -8.5t69.5 -27.5q-46 -139 -90.5 -261.5t-87.5 -231t-85 -205t-84 -183.5q13 -71 30 -132t40.5 -105.5t55.5 -69.5t74 -25q15 0 35.5 2.5t44 11t49 25.5t52.5 46zM1141 1429 q0 122 -9.5 237.5t-28.5 218t-49 188t-70.5 147t-93 96t-116.5 34.5q-51 0 -99.5 -21t-91.5 -58.5t-79 -88t-62 -109.5t-40.5 -124t-14.5 -130q0 -67 13.5 -126t46.5 -108.5t88.5 -89t139.5 -67t198.5 -43t266.5 -17.5q1 8 1 15v15v31zM2166 1217q-46 0 -97 -22.5 t-101 -64.5t-95.5 -102t-80.5 -135t-55.5 -163.5t-20.5 -187.5q0 -164 61 -255.5t186 -91.5q47 0 102 16.5t114 67.5t120 146t121 251q-12 105 -31 203t-48.5 173t-72 120t-102.5 45zM2344 1568q-33 51 -70.5 111t-74.5 123t-71.5 124t-60.5 115t-41.5 96t-15.5 66 q0 18 12 38.5t32 42.5t45 43.5t52 41.5l44 -12q34 -175 84.5 -363.5t128.5 -393.5z" />
<glyph unicode="&#x3b8;&#x1fb6;" horiz-adv-x="2984" d="M2927 283q2 -16 3 -31t1 -29q0 -67 -19.5 -117t-51.5 -83t-72 -49.5t-80 -16.5q-62 0 -104.5 29t-71 83t-46 132.5t-29.5 177.5h-6q-75 -138 -146.5 -223t-135.5 -131.5t-119 -62.5t-98 -16q-86 0 -152.5 45.5t-112.5 123.5t-70 183.5t-24 225.5q0 92 13 183t36.5 176 t57.5 161t76 138l-4 5q-131 -22 -262.5 -32.5t-240.5 -12.5q-11 -175 -37.5 -331.5t-66.5 -289.5t-92.5 -239t-115.5 -180.5t-136 -114.5t-153 -40q-79 0 -144 38.5t-112 113t-73 183.5t-26 249q0 20 1 43t1 56q0 22 -9.5 40.5t-26 31.5t-38 20t-45.5 7q-30 0 -61.5 -12.5 t-59.5 -41.5l-16 5q-19 54 -19 99q0 58 19 100t49.5 69.5t69.5 41t79 13.5q38 0 73.5 -11.5t63.5 -35t44.5 -57.5t16.5 -79q0 -21 -3 -47t-7 -61t-7 -81t-3 -107q0 -76 15 -137t44 -104t71.5 -66t96.5 -23q82 0 159 62t139.5 182t107 296.5t62.5 406.5q-242 3 -406 44 t-264.5 120t-143.5 195.5t-43 269.5q0 101 17.5 201t50 192t78.5 171t104.5 137t127 91.5t145.5 33.5q100 0 187.5 -74t152.5 -224.5t102.5 -380t37.5 -540.5v-8q51 0 124 3.5t153.5 9t162.5 13t152 16t122 17t73 16.5q45 15 92 15q55 0 97.5 -23.5t75 -64.5t57 -98 t42.5 -124t31 -141.5t24 -150.5l6 -1q33 109 65 242t66 292q6 30 39.5 46t81.5 16q34 0 70.5 -8.5t69.5 -27.5q-46 -139 -90.5 -261.5t-87.5 -231t-85 -205t-84 -183.5q13 -71 30 -132t40.5 -105.5t55.5 -69.5t74 -25q15 0 35.5 2.5t44 11t49 25.5t52.5 46zM1141 1429 q0 122 -9.5 237.5t-28.5 218t-49 188t-70.5 147t-93 96t-116.5 34.5q-51 0 -99.5 -21t-91.5 -58.5t-79 -88t-62 -109.5t-40.5 -124t-14.5 -130q0 -67 13.5 -126t46.5 -108.5t88.5 -89t139.5 -67t198.5 -43t266.5 -17.5q1 8 1 15v15v31zM2166 1217q-46 0 -97 -22.5 t-101 -64.5t-95.5 -102t-80.5 -135t-55.5 -163.5t-20.5 -187.5q0 -164 61 -255.5t186 -91.5q47 0 102 16.5t114 67.5t120 146t121 251q-12 105 -31 203t-48.5 173t-72 120t-102.5 45zM2886 2164q-33 -110 -73.5 -182.5t-85 -116t-90 -61t-87.5 -17.5q-58 0 -115 18.5 t-111.5 40.5t-105.5 40.5t-98 18.5q-30 0 -59 -9t-56.5 -30.5t-53 -57t-47.5 -88.5l-70 19q30 105 70.5 173.5t86 108.5t93.5 55.5t94 15.5q51 0 102.5 -14t102 -31t99.5 -31t96 -14q43 0 81 15t69 40.5t55 59t40 70.5z" />
<glyph unicode="&#x3b8;&#x1fb1;" horiz-adv-x="2984" d="M2927 283q2 -16 3 -31t1 -29q0 -67 -19.5 -117t-51.5 -83t-72 -49.5t-80 -16.5q-62 0 -104.5 29t-71 83t-46 132.5t-29.5 177.5h-6q-75 -138 -146.5 -223t-135.5 -131.5t-119 -62.5t-98 -16q-86 0 -152.5 45.5t-112.5 123.5t-70 183.5t-24 225.5q0 92 13 183t36.5 176 t57.5 161t76 138l-4 5q-131 -22 -262.5 -32.5t-240.5 -12.5q-11 -175 -37.5 -331.5t-66.5 -289.5t-92.5 -239t-115.5 -180.5t-136 -114.5t-153 -40q-79 0 -144 38.5t-112 113t-73 183.5t-26 249q0 20 1 43t1 56q0 22 -9.5 40.5t-26 31.5t-38 20t-45.5 7q-30 0 -61.5 -12.5 t-59.5 -41.5l-16 5q-19 54 -19 99q0 58 19 100t49.5 69.5t69.5 41t79 13.5q38 0 73.5 -11.5t63.5 -35t44.5 -57.5t16.5 -79q0 -21 -3 -47t-7 -61t-7 -81t-3 -107q0 -76 15 -137t44 -104t71.5 -66t96.5 -23q82 0 159 62t139.5 182t107 296.5t62.5 406.5q-242 3 -406 44 t-264.5 120t-143.5 195.5t-43 269.5q0 101 17.5 201t50 192t78.5 171t104.5 137t127 91.5t145.5 33.5q100 0 187.5 -74t152.5 -224.5t102.5 -380t37.5 -540.5v-8q51 0 124 3.5t153.5 9t162.5 13t152 16t122 17t73 16.5q45 15 92 15q55 0 97.5 -23.5t75 -64.5t57 -98 t42.5 -124t31 -141.5t24 -150.5l6 -1q33 109 65 242t66 292q6 30 39.5 46t81.5 16q34 0 70.5 -8.5t69.5 -27.5q-46 -139 -90.5 -261.5t-87.5 -231t-85 -205t-84 -183.5q13 -71 30 -132t40.5 -105.5t55.5 -69.5t74 -25q15 0 35.5 2.5t44 11t49 25.5t52.5 46zM1141 1429 q0 122 -9.5 237.5t-28.5 218t-49 188t-70.5 147t-93 96t-116.5 34.5q-51 0 -99.5 -21t-91.5 -58.5t-79 -88t-62 -109.5t-40.5 -124t-14.5 -130q0 -67 13.5 -126t46.5 -108.5t88.5 -89t139.5 -67t198.5 -43t266.5 -17.5q1 8 1 15v15v31zM2166 1217q-46 0 -97 -22.5 t-101 -64.5t-95.5 -102t-80.5 -135t-55.5 -163.5t-20.5 -187.5q0 -164 61 -255.5t186 -91.5q47 0 102 16.5t114 67.5t120 146t121 251q-12 105 -31 203t-48.5 173t-72 120t-102.5 45zM2752 2025q10 -24 13.5 -42t3.5 -36q0 -26 -9.5 -42t-30 -25t-53 -12t-77.5 -3 q-69 0 -178.5 3.5t-249.5 3.5q-67 0 -132.5 -4.5t-131.5 -24.5q0 56 23 90t64.5 52.5t99.5 24.5t128 6q33 0 71.5 -1t79.5 -1.5t83 -1.5t81 -1q60 0 114.5 3t100.5 11z" />
<glyph unicode="&#x3b8;&#x1fb0;" horiz-adv-x="2984" d="M2927 283q2 -16 3 -31t1 -29q0 -67 -19.5 -117t-51.5 -83t-72 -49.5t-80 -16.5q-62 0 -104.5 29t-71 83t-46 132.5t-29.5 177.5h-6q-75 -138 -146.5 -223t-135.5 -131.5t-119 -62.5t-98 -16q-86 0 -152.5 45.5t-112.5 123.5t-70 183.5t-24 225.5q0 92 13 183t36.5 176 t57.5 161t76 138l-4 5q-131 -22 -262.5 -32.5t-240.5 -12.5q-11 -175 -37.5 -331.5t-66.5 -289.5t-92.5 -239t-115.5 -180.5t-136 -114.5t-153 -40q-79 0 -144 38.5t-112 113t-73 183.5t-26 249q0 20 1 43t1 56q0 22 -9.5 40.5t-26 31.5t-38 20t-45.5 7q-30 0 -61.5 -12.5 t-59.5 -41.5l-16 5q-19 54 -19 99q0 58 19 100t49.5 69.5t69.5 41t79 13.5q38 0 73.5 -11.5t63.5 -35t44.5 -57.5t16.5 -79q0 -21 -3 -47t-7 -61t-7 -81t-3 -107q0 -76 15 -137t44 -104t71.5 -66t96.5 -23q82 0 159 62t139.5 182t107 296.5t62.5 406.5q-242 3 -406 44 t-264.5 120t-143.5 195.5t-43 269.5q0 101 17.5 201t50 192t78.5 171t104.5 137t127 91.5t145.5 33.5q100 0 187.5 -74t152.5 -224.5t102.5 -380t37.5 -540.5v-8q51 0 124 3.5t153.5 9t162.5 13t152 16t122 17t73 16.5q45 15 92 15q55 0 97.5 -23.5t75 -64.5t57 -98 t42.5 -124t31 -141.5t24 -150.5l6 -1q33 109 65 242t66 292q6 30 39.5 46t81.5 16q34 0 70.5 -8.5t69.5 -27.5q-46 -139 -90.5 -261.5t-87.5 -231t-85 -205t-84 -183.5q13 -71 30 -132t40.5 -105.5t55.5 -69.5t74 -25q15 0 35.5 2.5t44 11t49 25.5t52.5 46zM1141 1429 q0 122 -9.5 237.5t-28.5 218t-49 188t-70.5 147t-93 96t-116.5 34.5q-51 0 -99.5 -21t-91.5 -58.5t-79 -88t-62 -109.5t-40.5 -124t-14.5 -130q0 -67 13.5 -126t46.5 -108.5t88.5 -89t139.5 -67t198.5 -43t266.5 -17.5q1 8 1 15v15v31zM2166 1217q-46 0 -97 -22.5 t-101 -64.5t-95.5 -102t-80.5 -135t-55.5 -163.5t-20.5 -187.5q0 -164 61 -255.5t186 -91.5q47 0 102 16.5t114 67.5t120 146t121 251q-12 105 -31 203t-48.5 173t-72 120t-102.5 45zM2791 2187q-18 -98 -54 -186t-93 -154t-136 -105t-182 -39q-95 0 -166.5 34.5t-119.5 96 t-72 146t-24 183.5v8v6.5t1 9.5l64 13q11 -65 36 -117t65 -89t96 -56.5t129 -19.5q69 0 129 19t109.5 55.5t86.5 89t59 119.5z" />
<glyph unicode="&#x3b8;&#x1fb3;" horiz-adv-x="2984" d="M2927 283q2 -16 3 -31t1 -29q0 -67 -19.5 -117t-51.5 -83t-72 -49.5t-80 -16.5q-62 0 -104.5 29t-71 83t-46 132.5t-29.5 177.5h-6q-75 -138 -146.5 -223t-135.5 -131.5t-119 -62.5t-98 -16q-86 0 -152.5 45.5t-112.5 123.5t-70 183.5t-24 225.5q0 92 13 183t36.5 176 t57.5 161t76 138l-4 5q-131 -22 -262.5 -32.5t-240.5 -12.5q-11 -175 -37.5 -331.5t-66.5 -289.5t-92.5 -239t-115.5 -180.5t-136 -114.5t-153 -40q-79 0 -144 38.5t-112 113t-73 183.5t-26 249q0 20 1 43t1 56q0 22 -9.5 40.5t-26 31.5t-38 20t-45.5 7q-30 0 -61.5 -12.5 t-59.5 -41.5l-16 5q-19 54 -19 99q0 58 19 100t49.5 69.5t69.5 41t79 13.5q38 0 73.5 -11.5t63.5 -35t44.5 -57.5t16.5 -79q0 -21 -3 -47t-7 -61t-7 -81t-3 -107q0 -76 15 -137t44 -104t71.5 -66t96.5 -23q82 0 159 62t139.5 182t107 296.5t62.5 406.5q-242 3 -406 44 t-264.5 120t-143.5 195.5t-43 269.5q0 101 17.5 201t50 192t78.5 171t104.5 137t127 91.5t145.5 33.5q100 0 187.5 -74t152.5 -224.5t102.5 -380t37.5 -540.5v-8q51 0 124 3.5t153.5 9t162.5 13t152 16t122 17t73 16.5q45 15 92 15q55 0 97.5 -23.5t75 -64.5t57 -98 t42.5 -124t31 -141.5t24 -150.5l6 -1q33 109 65 242t66 292q6 30 39.5 46t81.5 16q34 0 70.5 -8.5t69.5 -27.5q-46 -139 -90.5 -261.5t-87.5 -231t-85 -205t-84 -183.5q13 -71 30 -132t40.5 -105.5t55.5 -69.5t74 -25q15 0 35.5 2.5t44 11t49 25.5t52.5 46zM1141 1429 q0 122 -9.5 237.5t-28.5 218t-49 188t-70.5 147t-93 96t-116.5 34.5q-51 0 -99.5 -21t-91.5 -58.5t-79 -88t-62 -109.5t-40.5 -124t-14.5 -130q0 -67 13.5 -126t46.5 -108.5t88.5 -89t139.5 -67t198.5 -43t266.5 -17.5q1 8 1 15v15v31zM2166 1217q-46 0 -97 -22.5 t-101 -64.5t-95.5 -102t-80.5 -135t-55.5 -163.5t-20.5 -187.5q0 -164 61 -255.5t186 -91.5q47 0 102 16.5t114 67.5t120 146t121 251q-12 105 -31 203t-48.5 173t-72 120t-102.5 45zM2486 -831q-52 -26 -100.5 -38t-93.5 -12q-66 0 -112.5 22t-76 60.5t-43 89.5t-13.5 108 q0 52 10 107t29 108t45.5 102.5t58.5 90.5l132 14l19 -1q-21 -35 -38.5 -77t-30 -86.5t-19.5 -89t-7 -83.5q0 -48 12 -91t39.5 -77t71.5 -56.5t108 -29.5z" />
<glyph unicode="&#x3b8;&#x1fb4;" horiz-adv-x="2984" d="M2927 283q2 -16 3 -31t1 -29q0 -67 -19.5 -117t-51.5 -83t-72 -49.5t-80 -16.5q-62 0 -104.5 29t-71 83t-46 132.5t-29.5 177.5h-6q-75 -138 -146.5 -223t-135.5 -131.5t-119 -62.5t-98 -16q-86 0 -152.5 45.5t-112.5 123.5t-70 183.5t-24 225.5q0 92 13 183t36.5 176 t57.5 161t76 138l-4 5q-131 -22 -262.5 -32.5t-240.5 -12.5q-11 -175 -37.5 -331.5t-66.5 -289.5t-92.5 -239t-115.5 -180.5t-136 -114.5t-153 -40q-79 0 -144 38.5t-112 113t-73 183.5t-26 249q0 20 1 43t1 56q0 22 -9.5 40.5t-26 31.5t-38 20t-45.5 7q-30 0 -61.5 -12.5 t-59.5 -41.5l-16 5q-19 54 -19 99q0 58 19 100t49.5 69.5t69.5 41t79 13.5q38 0 73.5 -11.5t63.5 -35t44.5 -57.5t16.5 -79q0 -21 -3 -47t-7 -61t-7 -81t-3 -107q0 -76 15 -137t44 -104t71.5 -66t96.5 -23q82 0 159 62t139.5 182t107 296.5t62.5 406.5q-242 3 -406 44 t-264.5 120t-143.5 195.5t-43 269.5q0 101 17.5 201t50 192t78.5 171t104.5 137t127 91.5t145.5 33.5q100 0 187.5 -74t152.5 -224.5t102.5 -380t37.5 -540.5v-8q51 0 124 3.5t153.5 9t162.5 13t152 16t122 17t73 16.5q45 15 92 15q55 0 97.5 -23.5t75 -64.5t57 -98 t42.5 -124t31 -141.5t24 -150.5l6 -1q33 109 65 242t66 292q6 30 39.5 46t81.5 16q34 0 70.5 -8.5t69.5 -27.5q-46 -139 -90.5 -261.5t-87.5 -231t-85 -205t-84 -183.5q13 -71 30 -132t40.5 -105.5t55.5 -69.5t74 -25q15 0 35.5 2.5t44 11t49 25.5t52.5 46zM1141 1429 q0 122 -9.5 237.5t-28.5 218t-49 188t-70.5 147t-93 96t-116.5 34.5q-51 0 -99.5 -21t-91.5 -58.5t-79 -88t-62 -109.5t-40.5 -124t-14.5 -130q0 -67 13.5 -126t46.5 -108.5t88.5 -89t139.5 -67t198.5 -43t266.5 -17.5q1 8 1 15v15v31zM2166 1217q-46 0 -97 -22.5 t-101 -64.5t-95.5 -102t-80.5 -135t-55.5 -163.5t-20.5 -187.5q0 -164 61 -255.5t186 -91.5q47 0 102 16.5t114 67.5t120 146t121 251q-12 105 -31 203t-48.5 173t-72 120t-102.5 45zM2214 1599q109 203 186 393t134 365l47 12q28 -19 51 -42.5t39.5 -47t26 -44.5t9.5 -34 q0 -21 -19 -61.5t-52 -92.5t-76 -113.5t-91 -124.5t-98 -125t-96 -116zM2486 -831q-52 -26 -100.5 -38t-93.5 -12q-66 0 -112.5 22t-76 60.5t-43 89.5t-13.5 108q0 52 10 107t29 108t45.5 102.5t58.5 90.5l132 14l19 -1q-21 -35 -38.5 -77t-30 -86.5t-19.5 -89t-7 -83.5 q0 -48 12 -91t39.5 -77t71.5 -56.5t108 -29.5z" />
<glyph unicode="&#x3b8;&#x1fb2;" horiz-adv-x="2984" d="M2927 283q2 -16 3 -31t1 -29q0 -67 -19.5 -117t-51.5 -83t-72 -49.5t-80 -16.5q-62 0 -104.5 29t-71 83t-46 132.5t-29.5 177.5h-6q-75 -138 -146.5 -223t-135.5 -131.5t-119 -62.5t-98 -16q-86 0 -152.5 45.5t-112.5 123.5t-70 183.5t-24 225.5q0 92 13 183t36.5 176 t57.5 161t76 138l-4 5q-131 -22 -262.5 -32.5t-240.5 -12.5q-11 -175 -37.5 -331.5t-66.5 -289.5t-92.5 -239t-115.5 -180.5t-136 -114.5t-153 -40q-79 0 -144 38.5t-112 113t-73 183.5t-26 249q0 20 1 43t1 56q0 22 -9.5 40.5t-26 31.5t-38 20t-45.5 7q-30 0 -61.5 -12.5 t-59.5 -41.5l-16 5q-19 54 -19 99q0 58 19 100t49.5 69.5t69.5 41t79 13.5q38 0 73.5 -11.5t63.5 -35t44.5 -57.5t16.5 -79q0 -21 -3 -47t-7 -61t-7 -81t-3 -107q0 -76 15 -137t44 -104t71.5 -66t96.5 -23q82 0 159 62t139.5 182t107 296.5t62.5 406.5q-242 3 -406 44 t-264.5 120t-143.5 195.5t-43 269.5q0 101 17.5 201t50 192t78.5 171t104.5 137t127 91.5t145.5 33.5q100 0 187.5 -74t152.5 -224.5t102.5 -380t37.5 -540.5v-8q51 0 124 3.5t153.5 9t162.5 13t152 16t122 17t73 16.5q45 15 92 15q55 0 97.5 -23.5t75 -64.5t57 -98 t42.5 -124t31 -141.5t24 -150.5l6 -1q33 109 65 242t66 292q6 30 39.5 46t81.5 16q34 0 70.5 -8.5t69.5 -27.5q-46 -139 -90.5 -261.5t-87.5 -231t-85 -205t-84 -183.5q13 -71 30 -132t40.5 -105.5t55.5 -69.5t74 -25q15 0 35.5 2.5t44 11t49 25.5t52.5 46zM1141 1429 q0 122 -9.5 237.5t-28.5 218t-49 188t-70.5 147t-93 96t-116.5 34.5q-51 0 -99.5 -21t-91.5 -58.5t-79 -88t-62 -109.5t-40.5 -124t-14.5 -130q0 -67 13.5 -126t46.5 -108.5t88.5 -89t139.5 -67t198.5 -43t266.5 -17.5q1 8 1 15v15v31zM2166 1217q-46 0 -97 -22.5 t-101 -64.5t-95.5 -102t-80.5 -135t-55.5 -163.5t-20.5 -187.5q0 -164 61 -255.5t186 -91.5q47 0 102 16.5t114 67.5t120 146t121 251q-12 105 -31 203t-48.5 173t-72 120t-102.5 45zM2344 1568q-33 51 -70.5 111t-74.5 123t-71.5 124t-60.5 115t-41.5 96t-15.5 66 q0 18 12 38.5t32 42.5t45 43.5t52 41.5l44 -12q34 -175 84.5 -363.5t128.5 -393.5zM2486 -831q-52 -26 -100.5 -38t-93.5 -12q-66 0 -112.5 22t-76 60.5t-43 89.5t-13.5 108q0 52 10 107t29 108t45.5 102.5t58.5 90.5l132 14l19 -1q-21 -35 -38.5 -77t-30 -86.5t-19.5 -89 t-7 -83.5q0 -48 12 -91t39.5 -77t71.5 -56.5t108 -29.5z" />
<glyph unicode="&#x3b8;&#x1fb7;" horiz-adv-x="2984" d="M2927 283q2 -16 3 -31t1 -29q0 -67 -19.5 -117t-51.5 -83t-72 -49.5t-80 -16.5q-62 0 -104.5 29t-71 83t-46 132.5t-29.5 177.5h-6q-75 -138 -146.5 -223t-135.5 -131.5t-119 -62.5t-98 -16q-86 0 -152.5 45.5t-112.5 123.5t-70 183.5t-24 225.5q0 92 13 183t36.5 176 t57.5 161t76 138l-4 5q-131 -22 -262.5 -32.5t-240.5 -12.5q-11 -175 -37.5 -331.5t-66.5 -289.5t-92.5 -239t-115.5 -180.5t-136 -114.5t-153 -40q-79 0 -144 38.5t-112 113t-73 183.5t-26 249q0 20 1 43t1 56q0 22 -9.5 40.5t-26 31.5t-38 20t-45.5 7q-30 0 -61.5 -12.5 t-59.5 -41.5l-16 5q-19 54 -19 99q0 58 19 100t49.5 69.5t69.5 41t79 13.5q38 0 73.5 -11.5t63.5 -35t44.5 -57.5t16.5 -79q0 -21 -3 -47t-7 -61t-7 -81t-3 -107q0 -76 15 -137t44 -104t71.5 -66t96.5 -23q82 0 159 62t139.5 182t107 296.5t62.5 406.5q-242 3 -406 44 t-264.5 120t-143.5 195.5t-43 269.5q0 101 17.5 201t50 192t78.5 171t104.5 137t127 91.5t145.5 33.5q100 0 187.5 -74t152.5 -224.5t102.5 -380t37.5 -540.5v-8q51 0 124 3.5t153.5 9t162.5 13t152 16t122 17t73 16.5q45 15 92 15q55 0 97.5 -23.5t75 -64.5t57 -98 t42.5 -124t31 -141.5t24 -150.5l6 -1q33 109 65 242t66 292q6 30 39.5 46t81.5 16q34 0 70.5 -8.5t69.5 -27.5q-46 -139 -90.5 -261.5t-87.5 -231t-85 -205t-84 -183.5q13 -71 30 -132t40.5 -105.5t55.5 -69.5t74 -25q15 0 35.5 2.5t44 11t49 25.5t52.5 46zM1141 1429 q0 122 -9.5 237.5t-28.5 218t-49 188t-70.5 147t-93 96t-116.5 34.5q-51 0 -99.5 -21t-91.5 -58.5t-79 -88t-62 -109.5t-40.5 -124t-14.5 -130q0 -67 13.5 -126t46.5 -108.5t88.5 -89t139.5 -67t198.5 -43t266.5 -17.5q1 8 1 15v15v31zM2166 1217q-46 0 -97 -22.5 t-101 -64.5t-95.5 -102t-80.5 -135t-55.5 -163.5t-20.5 -187.5q0 -164 61 -255.5t186 -91.5q47 0 102 16.5t114 67.5t120 146t121 251q-12 105 -31 203t-48.5 173t-72 120t-102.5 45zM2886 2164q-33 -110 -73.5 -182.5t-85 -116t-90 -61t-87.5 -17.5q-58 0 -115 18.5 t-111.5 40.5t-105.5 40.5t-98 18.5q-30 0 -59 -9t-56.5 -30.5t-53 -57t-47.5 -88.5l-70 19q30 105 70.5 173.5t86 108.5t93.5 55.5t94 15.5q51 0 102.5 -14t102 -31t99.5 -31t96 -14q43 0 81 15t69 40.5t55 59t40 70.5zM2486 -831q-52 -26 -100.5 -38t-93.5 -12 q-66 0 -112.5 22t-76 60.5t-43 89.5t-13.5 108q0 52 10 107t29 108t45.5 102.5t58.5 90.5l132 14l19 -1q-21 -35 -38.5 -77t-30 -86.5t-19.5 -89t-7 -83.5q0 -48 12 -91t39.5 -77t71.5 -56.5t108 -29.5z" />
<glyph unicode="&#x3b8;&#x3b1;&#x3c2;" horiz-adv-x="4097" d="M2155 1459q55 0 97.5 -23.5t75 -64.5t57 -98t42.5 -124t31 -141.5t24 -150.5l6 -1q33 109 65 242t66 292q6 30 39.5 46t81.5 16q34 0 70.5 -8.5t69.5 -27.5q-46 -139 -90.5 -261.5t-87.5 -231t-85 -205t-84 -183.5q14 -98 41 -165.5t64.5 -110t83.5 -61.5t99 -19 q63 0 117 29t93.5 76.5t61.5 108t22 122.5q0 22 -4.5 56t-4.5 97q0 92 19 186t56.5 181.5t93 164.5t128 134t162 90t194.5 33q43 0 82.5 -5t79.5 -12q38 -7 76.5 -12.5t86.5 -7.5q3 -23 3 -44q0 -81 -38.5 -132t-110.5 -51q-7 0 -18.5 1.5t-25.5 3.5l-27 4l-24 4 q-26 5 -54.5 8.5t-60.5 3.5q-73 0 -138.5 -24t-120.5 -65t-99.5 -96t-75.5 -117.5t-47.5 -129t-16.5 -130.5q0 -90 31 -155t81.5 -113.5t115 -85t131.5 -70.5q65 -32 126.5 -67.5t109.5 -82t77.5 -108.5t29.5 -146q0 -49 -13 -100.5t-36 -100t-55.5 -91.5t-71.5 -75 t-84.5 -50.5t-93.5 -18.5q-39 0 -69.5 11.5t-52.5 32.5t-33.5 49.5t-11.5 62.5q0 33 10 62l11 4q63 -20 130 -20q45 0 89 10t78.5 30.5t55.5 51.5t21 73q0 39 -19 69t-51 54t-75.5 45t-92.5 43q-53 24 -108.5 52t-107 67t-97.5 91.5t-80 124.5h-9q-63 -178 -159.5 -268 t-211.5 -90q-62 0 -116.5 24t-98.5 76t-75.5 134t-47.5 198h-6q-75 -138 -146.5 -223t-135.5 -131.5t-119 -62.5t-98 -16q-86 0 -152.5 45.5t-112.5 123.5t-70 183.5t-24 225.5q0 92 13 183t36.5 176t57.5 161t76 138l-4 5q-131 -22 -262.5 -32.5t-240.5 -12.5 q-11 -175 -37.5 -331.5t-66.5 -289.5t-92.5 -239t-115.5 -180.5t-136 -114.5t-153 -40q-79 0 -144 38.5t-112 113t-73 183.5t-26 249q0 20 1 43t1 56q0 22 -9.5 40.5t-26 31.5t-38 20t-45.5 7q-30 0 -61.5 -12.5t-59.5 -41.5l-16 5q-19 54 -19 99q0 58 19 100t49.5 69.5 t69.5 41t79 13.5q38 0 73.5 -11.5t63.5 -35t44.5 -57.5t16.5 -79q0 -21 -3 -47t-7 -61t-7 -81t-3 -107q0 -76 15 -137t44 -104t71.5 -66t96.5 -23q82 0 159 62t139.5 182t107 296.5t62.5 406.5q-242 3 -406 44t-264.5 120t-143.5 195.5t-43 269.5q0 101 17.5 201t50 192 t78.5 171t104.5 137t127 91.5t145.5 33.5q100 0 187.5 -74t152.5 -224.5t102.5 -380t37.5 -540.5v-8q51 0 124 3.5t153.5 9t162.5 13t152 16t122 17t73 16.5q45 15 92 15zM1141 1429q0 122 -9.5 237.5t-28.5 218t-49 188t-70.5 147t-93 96t-116.5 34.5q-51 0 -99.5 -21 t-91.5 -58.5t-79 -88t-62 -109.5t-40.5 -124t-14.5 -130q0 -67 13.5 -126t46.5 -108.5t88.5 -89t139.5 -67t198.5 -43t266.5 -17.5q1 8 1 15v15v31zM2166 1217q-46 0 -97 -22.5t-101 -64.5t-95.5 -102t-80.5 -135t-55.5 -163.5t-20.5 -187.5q0 -164 61 -255.5t186 -91.5 q47 0 102 16.5t114 67.5t120 146t121 251q-12 106 -31 204t-48.5 173t-72 119.5t-102.5 44.5z" />
<glyph unicode="&#x3b8;&#x3ac;&#x3c2;" horiz-adv-x="4097" d="M2155 1459q55 0 97.5 -23.5t75 -64.5t57 -98t42.5 -124t31 -141.5t24 -150.5l6 -1q33 109 65 242t66 292q6 30 39.5 46t81.5 16q34 0 70.5 -8.5t69.5 -27.5q-46 -139 -90.5 -261.5t-87.5 -231t-85 -205t-84 -183.5q14 -98 41 -165.5t64.5 -110t83.5 -61.5t99 -19 q63 0 117 29t93.5 76.5t61.5 108t22 122.5q0 22 -4.5 56t-4.5 97q0 92 19 186t56.5 181.5t93 164.5t128 134t162 90t194.5 33q43 0 82.5 -5t79.5 -12q38 -7 76.5 -12.5t86.5 -7.5q3 -23 3 -44q0 -81 -38.5 -132t-110.5 -51q-7 0 -18.5 1.5t-25.5 3.5l-27 4l-24 4 q-26 5 -54.5 8.5t-60.5 3.5q-73 0 -138.5 -24t-120.5 -65t-99.5 -96t-75.5 -117.5t-47.5 -129t-16.5 -130.5q0 -90 31 -155t81.5 -113.5t115 -85t131.5 -70.5q65 -32 126.5 -67.5t109.5 -82t77.5 -108.5t29.5 -146q0 -49 -13 -100.5t-36 -100t-55.5 -91.5t-71.5 -75 t-84.5 -50.5t-93.5 -18.5q-39 0 -69.5 11.5t-52.5 32.5t-33.5 49.5t-11.5 62.5q0 33 10 62l11 4q63 -20 130 -20q45 0 89 10t78.5 30.5t55.5 51.5t21 73q0 39 -19 69t-51 54t-75.5 45t-92.5 43q-53 24 -108.5 52t-107 67t-97.5 91.5t-80 124.5h-9q-63 -178 -159.5 -268 t-211.5 -90q-62 0 -116.5 24t-98.5 76t-75.5 134t-47.5 198h-6q-75 -138 -146.5 -223t-135.5 -131.5t-119 -62.5t-98 -16q-86 0 -152.5 45.5t-112.5 123.5t-70 183.5t-24 225.5q0 92 13 183t36.5 176t57.5 161t76 138l-4 5q-131 -22 -262.5 -32.5t-240.5 -12.5 q-11 -175 -37.5 -331.5t-66.5 -289.5t-92.5 -239t-115.5 -180.5t-136 -114.5t-153 -40q-79 0 -144 38.5t-112 113t-73 183.5t-26 249q0 20 1 43t1 56q0 22 -9.5 40.5t-26 31.5t-38 20t-45.5 7q-30 0 -61.5 -12.5t-59.5 -41.5l-16 5q-19 54 -19 99q0 58 19 100t49.5 69.5 t69.5 41t79 13.5q38 0 73.5 -11.5t63.5 -35t44.5 -57.5t16.5 -79q0 -21 -3 -47t-7 -61t-7 -81t-3 -107q0 -76 15 -137t44 -104t71.5 -66t96.5 -23q82 0 159 62t139.5 182t107 296.5t62.5 406.5q-242 3 -406 44t-264.5 120t-143.5 195.5t-43 269.5q0 101 17.5 201t50 192 t78.5 171t104.5 137t127 91.5t145.5 33.5q100 0 187.5 -74t152.5 -224.5t102.5 -380t37.5 -540.5v-8q51 0 124 3.5t153.5 9t162.5 13t152 16t122 17t73 16.5q45 15 92 15zM1141 1429q0 122 -9.5 237.5t-28.5 218t-49 188t-70.5 147t-93 96t-116.5 34.5q-51 0 -99.5 -21 t-91.5 -58.5t-79 -88t-62 -109.5t-40.5 -124t-14.5 -130q0 -67 13.5 -126t46.5 -108.5t88.5 -89t139.5 -67t198.5 -43t266.5 -17.5q1 8 1 15v15v31zM2166 1217q-46 0 -97 -22.5t-101 -64.5t-95.5 -102t-80.5 -135t-55.5 -163.5t-20.5 -187.5q0 -164 61 -255.5t186 -91.5 q47 0 102 16.5t114 67.5t120 146t121 251q-12 106 -31 204t-48.5 173t-72 119.5t-102.5 44.5zM2214 1599q109 203 186 393t134 365l47 12q28 -19 51 -42.5t39.5 -47t26 -44.5t9.5 -34q0 -21 -19 -61.5t-52 -92.5t-76 -113.5t-91 -124.5t-98 -125t-96 -116z" />
<glyph unicode="&#x3b8;&#x1f70;&#x3c2;" horiz-adv-x="4097" d="M2155 1459q55 0 97.5 -23.5t75 -64.5t57 -98t42.5 -124t31 -141.5t24 -150.5l6 -1q33 109 65 242t66 292q6 30 39.5 46t81.5 16q34 0 70.5 -8.5t69.5 -27.5q-46 -139 -90.5 -261.5t-87.5 -231t-85 -205t-84 -183.5q14 -98 41 -165.5t64.5 -110t83.5 -61.5t99 -19 q63 0 117 29t93.5 76.5t61.5 108t22 122.5q0 22 -4.5 56t-4.5 97q0 92 19 186t56.5 181.5t93 164.5t128 134t162 90t194.5 33q43 0 82.5 -5t79.5 -12q38 -7 76.5 -12.5t86.5 -7.5q3 -23 3 -44q0 -81 -38.5 -132t-110.5 -51q-7 0 -18.5 1.5t-25.5 3.5l-27 4l-24 4 q-26 5 -54.5 8.5t-60.5 3.5q-73 0 -138.5 -24t-120.5 -65t-99.5 -96t-75.5 -117.5t-47.5 -129t-16.5 -130.5q0 -90 31 -155t81.5 -113.5t115 -85t131.5 -70.5q65 -32 126.5 -67.5t109.5 -82t77.5 -108.5t29.5 -146q0 -49 -13 -100.5t-36 -100t-55.5 -91.5t-71.5 -75 t-84.5 -50.5t-93.5 -18.5q-39 0 -69.5 11.5t-52.5 32.5t-33.5 49.5t-11.5 62.5q0 33 10 62l11 4q63 -20 130 -20q45 0 89 10t78.5 30.5t55.5 51.5t21 73q0 39 -19 69t-51 54t-75.5 45t-92.5 43q-53 24 -108.5 52t-107 67t-97.5 91.5t-80 124.5h-9q-63 -178 -159.5 -268 t-211.5 -90q-62 0 -116.5 24t-98.5 76t-75.5 134t-47.5 198h-6q-75 -138 -146.5 -223t-135.5 -131.5t-119 -62.5t-98 -16q-86 0 -152.5 45.5t-112.5 123.5t-70 183.5t-24 225.5q0 92 13 183t36.5 176t57.5 161t76 138l-4 5q-131 -22 -262.5 -32.5t-240.5 -12.5 q-11 -175 -37.5 -331.5t-66.5 -289.5t-92.5 -239t-115.5 -180.5t-136 -114.5t-153 -40q-79 0 -144 38.5t-112 113t-73 183.5t-26 249q0 20 1 43t1 56q0 22 -9.5 40.5t-26 31.5t-38 20t-45.5 7q-30 0 -61.5 -12.5t-59.5 -41.5l-16 5q-19 54 -19 99q0 58 19 100t49.5 69.5 t69.5 41t79 13.5q38 0 73.5 -11.5t63.5 -35t44.5 -57.5t16.5 -79q0 -21 -3 -47t-7 -61t-7 -81t-3 -107q0 -76 15 -137t44 -104t71.5 -66t96.5 -23q82 0 159 62t139.5 182t107 296.5t62.5 406.5q-242 3 -406 44t-264.5 120t-143.5 195.5t-43 269.5q0 101 17.5 201t50 192 t78.5 171t104.5 137t127 91.5t145.5 33.5q100 0 187.5 -74t152.5 -224.5t102.5 -380t37.5 -540.5v-8q51 0 124 3.5t153.5 9t162.5 13t152 16t122 17t73 16.5q45 15 92 15zM1141 1429q0 122 -9.5 237.5t-28.5 218t-49 188t-70.5 147t-93 96t-116.5 34.5q-51 0 -99.5 -21 t-91.5 -58.5t-79 -88t-62 -109.5t-40.5 -124t-14.5 -130q0 -67 13.5 -126t46.5 -108.5t88.5 -89t139.5 -67t198.5 -43t266.5 -17.5q1 8 1 15v15v31zM2166 1217q-46 0 -97 -22.5t-101 -64.5t-95.5 -102t-80.5 -135t-55.5 -163.5t-20.5 -187.5q0 -164 61 -255.5t186 -91.5 q47 0 102 16.5t114 67.5t120 146t121 251q-12 106 -31 204t-48.5 173t-72 119.5t-102.5 44.5zM2344 1568q-33 51 -70.5 111t-74.5 123t-71.5 124t-60.5 115t-41.5 96t-15.5 66q0 18 12 38.5t32 42.5t45 43.5t52 41.5l44 -12q34 -175 84.5 -363.5t128.5 -393.5z" />
<glyph unicode="&#x3b8;&#x1fb6;&#x3c2;" horiz-adv-x="4097" d="M2155 1459q55 0 97.5 -23.5t75 -64.5t57 -98t42.5 -124t31 -141.5t24 -150.5l6 -1q33 109 65 242t66 292q6 30 39.5 46t81.5 16q34 0 70.5 -8.5t69.5 -27.5q-46 -139 -90.5 -261.5t-87.5 -231t-85 -205t-84 -183.5q14 -98 41 -165.5t64.5 -110t83.5 -61.5t99 -19 q63 0 117 29t93.5 76.5t61.5 108t22 122.5q0 22 -4.5 56t-4.5 97q0 92 19 186t56.5 181.5t93 164.5t128 134t162 90t194.5 33q43 0 82.5 -5t79.5 -12q38 -7 76.5 -12.5t86.5 -7.5q3 -23 3 -44q0 -81 -38.5 -132t-110.5 -51q-7 0 -18.5 1.5t-25.5 3.5l-27 4l-24 4 q-26 5 -54.5 8.5t-60.5 3.5q-73 0 -138.5 -24t-120.5 -65t-99.5 -96t-75.5 -117.5t-47.5 -129t-16.5 -130.5q0 -90 31 -155t81.5 -113.5t115 -85t131.5 -70.5q65 -32 126.5 -67.5t109.5 -82t77.5 -108.5t29.5 -146q0 -49 -13 -100.5t-36 -100t-55.5 -91.5t-71.5 -75 t-84.5 -50.5t-93.5 -18.5q-39 0 -69.5 11.5t-52.5 32.5t-33.5 49.5t-11.5 62.5q0 33 10 62l11 4q63 -20 130 -20q45 0 89 10t78.5 30.5t55.5 51.5t21 73q0 39 -19 69t-51 54t-75.5 45t-92.5 43q-53 24 -108.5 52t-107 67t-97.5 91.5t-80 124.5h-9q-63 -178 -159.5 -268 t-211.5 -90q-62 0 -116.5 24t-98.5 76t-75.5 134t-47.5 198h-6q-75 -138 -146.5 -223t-135.5 -131.5t-119 -62.5t-98 -16q-86 0 -152.5 45.5t-112.5 123.5t-70 183.5t-24 225.5q0 92 13 183t36.5 176t57.5 161t76 138l-4 5q-131 -22 -262.5 -32.5t-240.5 -12.5 q-11 -175 -37.5 -331.5t-66.5 -289.5t-92.5 -239t-115.5 -180.5t-136 -114.5t-153 -40q-79 0 -144 38.5t-112 113t-73 183.5t-26 249q0 20 1 43t1 56q0 22 -9.5 40.5t-26 31.5t-38 20t-45.5 7q-30 0 -61.5 -12.5t-59.5 -41.5l-16 5q-19 54 -19 99q0 58 19 100t49.5 69.5 t69.5 41t79 13.5q38 0 73.5 -11.5t63.5 -35t44.5 -57.5t16.5 -79q0 -21 -3 -47t-7 -61t-7 -81t-3 -107q0 -76 15 -137t44 -104t71.5 -66t96.5 -23q82 0 159 62t139.5 182t107 296.5t62.5 406.5q-242 3 -406 44t-264.5 120t-143.5 195.5t-43 269.5q0 101 17.5 201t50 192 t78.5 171t104.5 137t127 91.5t145.5 33.5q100 0 187.5 -74t152.5 -224.5t102.5 -380t37.5 -540.5v-8q51 0 124 3.5t153.5 9t162.5 13t152 16t122 17t73 16.5q45 15 92 15zM1141 1429q0 122 -9.5 237.5t-28.5 218t-49 188t-70.5 147t-93 96t-116.5 34.5q-51 0 -99.5 -21 t-91.5 -58.5t-79 -88t-62 -109.5t-40.5 -124t-14.5 -130q0 -67 13.5 -126t46.5 -108.5t88.5 -89t139.5 -67t198.5 -43t266.5 -17.5q1 8 1 15v15v31zM2166 1217q-46 0 -97 -22.5t-101 -64.5t-95.5 -102t-80.5 -135t-55.5 -163.5t-20.5 -187.5q0 -164 61 -255.5t186 -91.5 q47 0 102 16.5t114 67.5t120 146t121 251q-12 106 -31 204t-48.5 173t-72 119.5t-102.5 44.5zM2886 2164q-33 -110 -73.5 -182.5t-85 -116t-90 -61t-87.5 -17.5q-58 0 -115 18.5t-111.5 40.5t-105.5 40.5t-98 18.5q-30 0 -59 -9t-56.5 -30.5t-53 -57t-47.5 -88.5l-70 19 q30 105 70.5 173.5t86 108.5t93.5 55.5t94 15.5q51 0 102.5 -14t102 -31t99.5 -31t96 -14q43 0 81 15t69 40.5t55 59t40 70.5z" />
<glyph unicode="&#x3b8;&#x3b5;" horiz-adv-x="2639" d="M1947 789q25 13 57 24.5t67 20.5t71.5 14.5t69.5 5.5q32 0 60 -6t49 -19t33 -34t12 -52q0 -26 -11.5 -51.5t-34 -45.5t-56.5 -32.5t-78 -12.5q-58 0 -126 18t-126 52q-32 -23 -59.5 -48t-47 -53t-30.5 -61t-11 -72q0 -66 29.5 -113t77.5 -77t109 -44.5t125 -14.5 q108 0 211.5 34t184.5 110h13q22 -48 22 -95q0 -46 -21.5 -86t-58.5 -72t-85 -56.5t-101.5 -41.5t-108 -25.5t-104.5 -8.5q-87 0 -170.5 23.5t-149 72.5t-105.5 124t-40 179q0 115 62.5 210.5t176.5 173.5v4q-42 28 -76.5 64t-59.5 76.5t-38.5 84.5t-13.5 88q0 32 5.5 60 t20.5 58l-4 5q-121 -17 -223 -24t-196 -9q-11 -175 -37.5 -331t-66.5 -288t-92.5 -238t-115.5 -180t-135.5 -113.5t-152.5 -39.5q-79 0 -144 38.5t-112 113t-73 183.5t-26 249q0 20 1 43t1 56q0 22 -9.5 40.5t-26 31.5t-38 20t-45.5 7q-30 0 -61.5 -12.5t-59.5 -41.5l-16 5 q-19 54 -19 99q0 58 19 100t49.5 69.5t69.5 41t79 13.5q38 0 73.5 -11.5t63.5 -35t44.5 -57.5t16.5 -79q0 -21 -3 -47t-7 -61t-7 -81t-3 -107q0 -76 15 -137t44 -104t71.5 -66t96.5 -23q82 0 159 61.5t139.5 181t107 295.5t62.5 405q-242 5 -406.5 47t-264.5 121t-143 195.5 t-43 269.5q0 101 17.5 201t50 192t78.5 171t104.5 137t127 91.5t145.5 33.5q100 0 187.5 -74t152.5 -224.5t102.5 -380t37.5 -540.5v-12q76 1 169.5 4.5t196 12t210 22t212.5 34.5q51 10 99.5 15t96.5 5q84 0 160 -12t151 -29q1 -9 1.5 -16.5t0.5 -18.5q0 -81 -35 -130 t-101 -49q-25 0 -47 3t-48 6.5t-59 6.5t-81 3q-36 0 -78.5 -4.5t-84.5 -15t-81.5 -27.5t-69.5 -42.5t-48 -59.5t-18 -78q0 -64 35.5 -113t89.5 -93zM1141 1429q0 122 -9.5 237.5t-28.5 218t-49 188t-70.5 147t-93 96t-116.5 34.5q-51 0 -99.5 -21t-91.5 -58.5t-79 -88 t-62 -109.5t-40.5 -124t-14.5 -130q0 -68 13.5 -127t46.5 -108.5t88.5 -88.5t139.5 -67t198.5 -44t266.5 -19q1 8 1 15.5v15.5v33z" />
<glyph unicode="&#x3b8;&#x3ad;" horiz-adv-x="2639" d="M1947 789q25 13 57 24.5t67 20.5t71.5 14.5t69.5 5.5q32 0 60 -6t49 -19t33 -34t12 -52q0 -26 -11.5 -51.5t-34 -45.5t-56.5 -32.5t-78 -12.5q-58 0 -126 18t-126 52q-32 -23 -59.5 -48t-47 -53t-30.5 -61t-11 -72q0 -66 29.5 -113t77.5 -77t109 -44.5t125 -14.5 q108 0 211.5 34t184.5 110h13q22 -48 22 -95q0 -46 -21.5 -86t-58.5 -72t-85 -56.5t-101.5 -41.5t-108 -25.5t-104.5 -8.5q-87 0 -170.5 23.5t-149 72.5t-105.5 124t-40 179q0 115 62.5 210.5t176.5 173.5v4q-42 28 -76.5 64t-59.5 76.5t-38.5 84.5t-13.5 88q0 32 5.5 60 t20.5 58l-4 5q-121 -17 -223 -24t-196 -9q-11 -175 -37.5 -331t-66.5 -288t-92.5 -238t-115.5 -180t-135.5 -113.5t-152.5 -39.5q-79 0 -144 38.5t-112 113t-73 183.5t-26 249q0 20 1 43t1 56q0 22 -9.5 40.5t-26 31.5t-38 20t-45.5 7q-30 0 -61.5 -12.5t-59.5 -41.5l-16 5 q-19 54 -19 99q0 58 19 100t49.5 69.5t69.5 41t79 13.5q38 0 73.5 -11.5t63.5 -35t44.5 -57.5t16.5 -79q0 -21 -3 -47t-7 -61t-7 -81t-3 -107q0 -76 15 -137t44 -104t71.5 -66t96.5 -23q82 0 159 61.5t139.5 181t107 295.5t62.5 405q-242 5 -406.5 47t-264.5 121t-143 195.5 t-43 269.5q0 101 17.5 201t50 192t78.5 171t104.5 137t127 91.5t145.5 33.5q100 0 187.5 -74t152.5 -224.5t102.5 -380t37.5 -540.5v-12q76 1 169.5 4.5t196 12t210 22t212.5 34.5q51 10 99.5 15t96.5 5q84 0 160 -12t151 -29q1 -9 1.5 -16.5t0.5 -18.5q0 -81 -35 -130 t-101 -49q-25 0 -47 3t-48 6.5t-59 6.5t-81 3q-36 0 -78.5 -4.5t-84.5 -15t-81.5 -27.5t-69.5 -42.5t-48 -59.5t-18 -78q0 -64 35.5 -113t89.5 -93zM1141 1429q0 122 -9.5 237.5t-28.5 218t-49 188t-70.5 147t-93 96t-116.5 34.5q-51 0 -99.5 -21t-91.5 -58.5t-79 -88 t-62 -109.5t-40.5 -124t-14.5 -130q0 -68 13.5 -127t46.5 -108.5t88.5 -88.5t139.5 -67t198.5 -44t266.5 -19q1 8 1 15.5v15.5v33zM2069 1599q109 203 186 393t134 365l47 12q28 -19 51 -42.5t39.5 -47t26 -44.5t9.5 -34q0 -21 -19 -61.5t-52 -92.5t-76 -113.5t-91 -124.5 t-98 -125t-96 -116z" />
<glyph unicode="&#x3b8;&#x1f72;" horiz-adv-x="2639" d="M1947 789q25 13 57 24.5t67 20.5t71.5 14.5t69.5 5.5q32 0 60 -6t49 -19t33 -34t12 -52q0 -26 -11.5 -51.5t-34 -45.5t-56.5 -32.5t-78 -12.5q-58 0 -126 18t-126 52q-32 -23 -59.5 -48t-47 -53t-30.5 -61t-11 -72q0 -66 29.5 -113t77.5 -77t109 -44.5t125 -14.5 q108 0 211.5 34t184.5 110h13q22 -48 22 -95q0 -46 -21.5 -86t-58.5 -72t-85 -56.5t-101.5 -41.5t-108 -25.5t-104.5 -8.5q-87 0 -170.5 23.5t-149 72.5t-105.5 124t-40 179q0 115 62.5 210.5t176.5 173.5v4q-42 28 -76.5 64t-59.5 76.5t-38.5 84.5t-13.5 88q0 32 5.5 60 t20.5 58l-4 5q-121 -17 -223 -24t-196 -9q-11 -175 -37.5 -331t-66.5 -288t-92.5 -238t-115.5 -180t-135.5 -113.5t-152.5 -39.5q-79 0 -144 38.5t-112 113t-73 183.5t-26 249q0 20 1 43t1 56q0 22 -9.5 40.5t-26 31.5t-38 20t-45.5 7q-30 0 -61.5 -12.5t-59.5 -41.5l-16 5 q-19 54 -19 99q0 58 19 100t49.5 69.5t69.5 41t79 13.5q38 0 73.5 -11.5t63.5 -35t44.5 -57.5t16.5 -79q0 -21 -3 -47t-7 -61t-7 -81t-3 -107q0 -76 15 -137t44 -104t71.5 -66t96.5 -23q82 0 159 61.5t139.5 181t107 295.5t62.5 405q-242 5 -406.5 47t-264.5 121t-143 195.5 t-43 269.5q0 101 17.5 201t50 192t78.5 171t104.5 137t127 91.5t145.5 33.5q100 0 187.5 -74t152.5 -224.5t102.5 -380t37.5 -540.5v-12q76 1 169.5 4.5t196 12t210 22t212.5 34.5q51 10 99.5 15t96.5 5q84 0 160 -12t151 -29q1 -9 1.5 -16.5t0.5 -18.5q0 -81 -35 -130 t-101 -49q-25 0 -47 3t-48 6.5t-59 6.5t-81 3q-36 0 -78.5 -4.5t-84.5 -15t-81.5 -27.5t-69.5 -42.5t-48 -59.5t-18 -78q0 -64 35.5 -113t89.5 -93zM1141 1429q0 122 -9.5 237.5t-28.5 218t-49 188t-70.5 147t-93 96t-116.5 34.5q-51 0 -99.5 -21t-91.5 -58.5t-79 -88 t-62 -109.5t-40.5 -124t-14.5 -130q0 -68 13.5 -127t46.5 -108.5t88.5 -88.5t139.5 -67t198.5 -44t266.5 -19q1 8 1 15.5v15.5v33zM2199 1568q-33 51 -70.5 111t-74.5 123t-71.5 124t-60.5 115t-41.5 96t-15.5 66q0 18 12 38.5t32 42.5t45 43.5t52 41.5l44 -12 q34 -175 84.5 -363.5t128.5 -393.5z" />
<glyph unicode="&#x3b8;&#x3b7;" horiz-adv-x="2853" d="M796 2596q99 0 186 -73t152 -221.5t103 -374.5t39 -532q35 2 78.5 5.5t90 7.5t94 9t91.5 10q20 2 35.5 4t33.5 2q50 0 84.5 -24.5t56 -69.5t31 -108t9.5 -141q0 -51 -3 -108.5t-8.5 -116t-11.5 -115.5t-12 -106l11 -1q67 200 141 352.5t147.5 255.5t143.5 155.5t129 52.5 q53 0 96.5 -34t74.5 -103.5t48 -175.5t17 -251q0 -126 -9.5 -293.5t-29.5 -383.5t-51 -484.5t-74 -595.5l-213 -25l-21 1q72 336 121.5 622t80 514.5t44 397t13.5 269.5q0 80 -9 136t-25 91t-38 51t-48 16q-59 0 -135 -76.5t-152.5 -228.5t-144.5 -379t-112 -527l-202 -25 l-22 1q25 115 48 229t41 224t28.5 215.5t10.5 203.5q0 73 -7 135.5t-21.5 107.5t-36.5 70.5t-52 25.5q-19 0 -68 -6q-30 -3 -68 -7t-78.5 -7.5t-80 -6.5t-73.5 -4q-10 -177 -36 -335.5t-66 -292.5t-92.5 -242t-116 -183t-136.5 -115.5t-154 -40.5q-79 0 -144 38.5t-112 113 t-73 183.5t-26 249q0 20 1 43t1 56q0 22 -9.5 40.5t-26 31.5t-38 20t-45.5 7q-30 0 -61.5 -12.5t-59.5 -41.5l-16 5q-19 54 -19 99q0 58 19 100t49.5 69.5t69.5 41t79 13.5q38 0 73.5 -11.5t63.5 -35t44.5 -57.5t16.5 -79q0 -21 -3 -47t-7 -61t-7 -81t-3 -107q0 -76 15 -137 t44 -104t71.5 -66t96.5 -23q83 0 160 62.5t140 184t107.5 300t61.5 411.5h-17q-238 0 -399 39.5t-259.5 117.5t-140.5 193.5t-42 267.5q0 101 17.5 201t50 192t78.5 171t104.5 137t127 91.5t145.5 33.5zM774 2350q-51 0 -99.5 -21t-91.5 -58.5t-79 -88t-62 -109.5 t-40.5 -124t-14.5 -130q0 -66 13 -123.5t43.5 -105t82 -85t129.5 -63.5t184 -39.5t247 -13.5h54q0 10 0.5 19.5t0.5 20.5q0 122 -9.5 237.5t-28.5 218t-49 188t-70.5 147t-93 96t-116.5 34.5z" />
<glyph unicode="&#x3b8;&#x3ae;" horiz-adv-x="2853" d="M796 2596q99 0 186 -73t152 -221.5t103 -374.5t39 -532q35 2 78.5 5.5t90 7.5t94 9t91.5 10q20 2 35.5 4t33.5 2q50 0 84.5 -24.5t56 -69.5t31 -108t9.5 -141q0 -51 -3 -108.5t-8.5 -116t-11.5 -115.5t-12 -106l11 -1q67 200 141 352.5t147.5 255.5t143.5 155.5t129 52.5 q53 0 96.5 -34t74.5 -103.5t48 -175.5t17 -251q0 -126 -9.5 -293.5t-29.5 -383.5t-51 -484.5t-74 -595.5l-213 -25l-21 1q72 336 121.5 622t80 514.5t44 397t13.5 269.5q0 80 -9 136t-25 91t-38 51t-48 16q-59 0 -135 -76.5t-152.5 -228.5t-144.5 -379t-112 -527l-202 -25 l-22 1q25 115 48 229t41 224t28.5 215.5t10.5 203.5q0 73 -7 135.5t-21.5 107.5t-36.5 70.5t-52 25.5q-19 0 -68 -6q-30 -3 -68 -7t-78.5 -7.5t-80 -6.5t-73.5 -4q-10 -177 -36 -335.5t-66 -292.5t-92.5 -242t-116 -183t-136.5 -115.5t-154 -40.5q-79 0 -144 38.5t-112 113 t-73 183.5t-26 249q0 20 1 43t1 56q0 22 -9.5 40.5t-26 31.5t-38 20t-45.5 7q-30 0 -61.5 -12.5t-59.5 -41.5l-16 5q-19 54 -19 99q0 58 19 100t49.5 69.5t69.5 41t79 13.5q38 0 73.5 -11.5t63.5 -35t44.5 -57.5t16.5 -79q0 -21 -3 -47t-7 -61t-7 -81t-3 -107q0 -76 15 -137 t44 -104t71.5 -66t96.5 -23q83 0 160 62.5t140 184t107.5 300t61.5 411.5h-17q-238 0 -399 39.5t-259.5 117.5t-140.5 193.5t-42 267.5q0 101 17.5 201t50 192t78.5 171t104.5 137t127 91.5t145.5 33.5zM774 2350q-51 0 -99.5 -21t-91.5 -58.5t-79 -88t-62 -109.5 t-40.5 -124t-14.5 -130q0 -66 13 -123.5t43.5 -105t82 -85t129.5 -63.5t184 -39.5t247 -13.5h54q0 10 0.5 19.5t0.5 20.5q0 122 -9.5 237.5t-28.5 218t-49 188t-70.5 147t-93 96t-116.5 34.5zM2069 1599q109 203 186 393t134 365l47 12q28 -19 51 -42.5t39.5 -47t26 -44.5 t9.5 -34q0 -21 -19 -61.5t-52 -92.5t-76 -113.5t-91 -124.5t-98 -125t-96 -116z" />
<glyph unicode="&#x3b8;&#x1f74;" horiz-adv-x="2853" d="M796 2596q99 0 186 -73t152 -221.5t103 -374.5t39 -532q35 2 78.5 5.5t90 7.5t94 9t91.5 10q20 2 35.5 4t33.5 2q50 0 84.5 -24.5t56 -69.5t31 -108t9.5 -141q0 -51 -3 -108.5t-8.5 -116t-11.5 -115.5t-12 -106l11 -1q67 200 141 352.5t147.5 255.5t143.5 155.5t129 52.5 q53 0 96.5 -34t74.5 -103.5t48 -175.5t17 -251q0 -126 -9.5 -293.5t-29.5 -383.5t-51 -484.5t-74 -595.5l-213 -25l-21 1q72 336 121.5 622t80 514.5t44 397t13.5 269.5q0 80 -9 136t-25 91t-38 51t-48 16q-59 0 -135 -76.5t-152.5 -228.5t-144.5 -379t-112 -527l-202 -25 l-22 1q25 115 48 229t41 224t28.5 215.5t10.5 203.5q0 73 -7 135.5t-21.5 107.5t-36.5 70.5t-52 25.5q-19 0 -68 -6q-30 -3 -68 -7t-78.5 -7.5t-80 -6.5t-73.5 -4q-10 -177 -36 -335.5t-66 -292.5t-92.5 -242t-116 -183t-136.5 -115.5t-154 -40.5q-79 0 -144 38.5t-112 113 t-73 183.5t-26 249q0 20 1 43t1 56q0 22 -9.5 40.5t-26 31.5t-38 20t-45.5 7q-30 0 -61.5 -12.5t-59.5 -41.5l-16 5q-19 54 -19 99q0 58 19 100t49.5 69.5t69.5 41t79 13.5q38 0 73.5 -11.5t63.5 -35t44.5 -57.5t16.5 -79q0 -21 -3 -47t-7 -61t-7 -81t-3 -107q0 -76 15 -137 t44 -104t71.5 -66t96.5 -23q83 0 160 62.5t140 184t107.5 300t61.5 411.5h-17q-238 0 -399 39.5t-259.5 117.5t-140.5 193.5t-42 267.5q0 101 17.5 201t50 192t78.5 171t104.5 137t127 91.5t145.5 33.5zM774 2350q-51 0 -99.5 -21t-91.5 -58.5t-79 -88t-62 -109.5 t-40.5 -124t-14.5 -130q0 -66 13 -123.5t43.5 -105t82 -85t129.5 -63.5t184 -39.5t247 -13.5h54q0 10 0.5 19.5t0.5 20.5q0 122 -9.5 237.5t-28.5 218t-49 188t-70.5 147t-93 96t-116.5 34.5zM2199 1568q-33 51 -70.5 111t-74.5 123t-71.5 124t-60.5 115t-41.5 96t-15.5 66 q0 18 12 38.5t32 42.5t45 43.5t52 41.5l44 -12q34 -175 84.5 -363.5t128.5 -393.5z" />
<glyph unicode="&#x3b8;&#x1fc6;" horiz-adv-x="2853" d="M796 2596q99 0 186 -73t152 -221.5t103 -374.5t39 -532q35 2 78.5 5.5t90 7.5t94 9t91.5 10q20 2 35.5 4t33.5 2q50 0 84.5 -24.5t56 -69.5t31 -108t9.5 -141q0 -51 -3 -108.5t-8.5 -116t-11.5 -115.5t-12 -106l11 -1q67 200 141 352.5t147.5 255.5t143.5 155.5t129 52.5 q53 0 96.5 -34t74.5 -103.5t48 -175.5t17 -251q0 -126 -9.5 -293.5t-29.5 -383.5t-51 -484.5t-74 -595.5l-213 -25l-21 1q72 336 121.5 622t80 514.5t44 397t13.5 269.5q0 80 -9 136t-25 91t-38 51t-48 16q-59 0 -135 -76.5t-152.5 -228.5t-144.5 -379t-112 -527l-202 -25 l-22 1q25 115 48 229t41 224t28.5 215.5t10.5 203.5q0 73 -7 135.5t-21.5 107.5t-36.5 70.5t-52 25.5q-19 0 -68 -6q-30 -3 -68 -7t-78.5 -7.5t-80 -6.5t-73.5 -4q-10 -177 -36 -335.5t-66 -292.5t-92.5 -242t-116 -183t-136.5 -115.5t-154 -40.5q-79 0 -144 38.5t-112 113 t-73 183.5t-26 249q0 20 1 43t1 56q0 22 -9.5 40.5t-26 31.5t-38 20t-45.5 7q-30 0 -61.5 -12.5t-59.5 -41.5l-16 5q-19 54 -19 99q0 58 19 100t49.5 69.5t69.5 41t79 13.5q38 0 73.5 -11.5t63.5 -35t44.5 -57.5t16.5 -79q0 -21 -3 -47t-7 -61t-7 -81t-3 -107q0 -76 15 -137 t44 -104t71.5 -66t96.5 -23q83 0 160 62.5t140 184t107.5 300t61.5 411.5h-17q-238 0 -399 39.5t-259.5 117.5t-140.5 193.5t-42 267.5q0 101 17.5 201t50 192t78.5 171t104.5 137t127 91.5t145.5 33.5zM774 2350q-51 0 -99.5 -21t-91.5 -58.5t-79 -88t-62 -109.5 t-40.5 -124t-14.5 -130q0 -66 13 -123.5t43.5 -105t82 -85t129.5 -63.5t184 -39.5t247 -13.5h54q0 10 0.5 19.5t0.5 20.5q0 122 -9.5 237.5t-28.5 218t-49 188t-70.5 147t-93 96t-116.5 34.5zM2741 2164q-33 -110 -73.5 -182.5t-85 -116t-90 -61t-87.5 -17.5 q-58 0 -115 18.5t-111.5 40.5t-105.5 40.5t-98 18.5q-30 0 -59 -9t-56.5 -30.5t-53 -57t-47.5 -88.5l-70 19q30 105 70.5 173.5t86 108.5t93.5 55.5t94 15.5q51 0 102.5 -14t102 -31t99.5 -31t96 -14q43 0 81 15t69 40.5t55 59t40 70.5z" />
<glyph unicode="&#x3b8;&#x1fc3;" horiz-adv-x="2853" d="M796 2596q99 0 186 -73t152 -221.5t103 -374.5t39 -532q35 2 78.5 5.5t90 7.5t94 9t91.5 10q20 2 35.5 4t33.5 2q50 0 84.5 -24.5t56 -69.5t31 -108t9.5 -141q0 -51 -3 -108.5t-8.5 -116t-11.5 -115.5t-12 -106l11 -1q67 200 141 352.5t147.5 255.5t143.5 155.5t129 52.5 q53 0 96.5 -34t74.5 -103.5t48 -175.5t17 -251q0 -126 -9.5 -293.5t-29.5 -383.5t-51 -484.5t-74 -595.5l-213 -25l-21 1q72 336 121.5 622t80 514.5t44 397t13.5 269.5q0 80 -9 136t-25 91t-38 51t-48 16q-59 0 -135 -76.5t-152.5 -228.5t-144.5 -379t-112 -527l-202 -25 l-22 1q25 115 48 229t41 224t28.5 215.5t10.5 203.5q0 73 -7 135.5t-21.5 107.5t-36.5 70.5t-52 25.5q-19 0 -68 -6q-30 -3 -68 -7t-78.5 -7.5t-80 -6.5t-73.5 -4q-10 -177 -36 -335.5t-66 -292.5t-92.5 -242t-116 -183t-136.5 -115.5t-154 -40.5q-79 0 -144 38.5t-112 113 t-73 183.5t-26 249q0 20 1 43t1 56q0 22 -9.5 40.5t-26 31.5t-38 20t-45.5 7q-30 0 -61.5 -12.5t-59.5 -41.5l-16 5q-19 54 -19 99q0 58 19 100t49.5 69.5t69.5 41t79 13.5q38 0 73.5 -11.5t63.5 -35t44.5 -57.5t16.5 -79q0 -21 -3 -47t-7 -61t-7 -81t-3 -107q0 -76 15 -137 t44 -104t71.5 -66t96.5 -23q83 0 160 62.5t140 184t107.5 300t61.5 411.5h-17q-238 0 -399 39.5t-259.5 117.5t-140.5 193.5t-42 267.5q0 101 17.5 201t50 192t78.5 171t104.5 137t127 91.5t145.5 33.5zM774 2350q-51 0 -99.5 -21t-91.5 -58.5t-79 -88t-62 -109.5 t-40.5 -124t-14.5 -130q0 -66 13 -123.5t43.5 -105t82 -85t129.5 -63.5t184 -39.5t247 -13.5h54q0 10 0.5 19.5t0.5 20.5q0 122 -9.5 237.5t-28.5 218t-49 188t-70.5 147t-93 96t-116.5 34.5zM1976 -831q-52 -26 -100.5 -38t-93.5 -12q-66 0 -112.5 22t-76 60.5t-43 89.5 t-13.5 108q0 52 10 107t29 108t45.5 102.5t58.5 90.5l132 14l19 -1q-21 -35 -38.5 -77t-30 -86.5t-19.5 -89t-7 -83.5q0 -48 12 -91t39.5 -77t71.5 -56.5t108 -29.5z" />
<glyph unicode="&#x3b8;&#x1fc4;" horiz-adv-x="2853" d="M796 2596q99 0 186 -73t152 -221.5t103 -374.5t39 -532q35 2 78.5 5.5t90 7.5t94 9t91.5 10q20 2 35.5 4t33.5 2q50 0 84.5 -24.5t56 -69.5t31 -108t9.5 -141q0 -51 -3 -108.5t-8.5 -116t-11.5 -115.5t-12 -106l11 -1q67 200 141 352.5t147.5 255.5t143.5 155.5t129 52.5 q53 0 96.5 -34t74.5 -103.5t48 -175.5t17 -251q0 -126 -9.5 -293.5t-29.5 -383.5t-51 -484.5t-74 -595.5l-213 -25l-21 1q72 336 121.5 622t80 514.5t44 397t13.5 269.5q0 80 -9 136t-25 91t-38 51t-48 16q-59 0 -135 -76.5t-152.5 -228.5t-144.5 -379t-112 -527l-202 -25 l-22 1q25 115 48 229t41 224t28.5 215.5t10.5 203.5q0 73 -7 135.5t-21.5 107.5t-36.5 70.5t-52 25.5q-19 0 -68 -6q-30 -3 -68 -7t-78.5 -7.5t-80 -6.5t-73.5 -4q-10 -177 -36 -335.5t-66 -292.5t-92.5 -242t-116 -183t-136.5 -115.5t-154 -40.5q-79 0 -144 38.5t-112 113 t-73 183.5t-26 249q0 20 1 43t1 56q0 22 -9.5 40.5t-26 31.5t-38 20t-45.5 7q-30 0 -61.5 -12.5t-59.5 -41.5l-16 5q-19 54 -19 99q0 58 19 100t49.5 69.5t69.5 41t79 13.5q38 0 73.5 -11.5t63.5 -35t44.5 -57.5t16.5 -79q0 -21 -3 -47t-7 -61t-7 -81t-3 -107q0 -76 15 -137 t44 -104t71.5 -66t96.5 -23q83 0 160 62.5t140 184t107.5 300t61.5 411.5h-17q-238 0 -399 39.5t-259.5 117.5t-140.5 193.5t-42 267.5q0 101 17.5 201t50 192t78.5 171t104.5 137t127 91.5t145.5 33.5zM774 2350q-51 0 -99.5 -21t-91.5 -58.5t-79 -88t-62 -109.5 t-40.5 -124t-14.5 -130q0 -66 13 -123.5t43.5 -105t82 -85t129.5 -63.5t184 -39.5t247 -13.5h54q0 10 0.5 19.5t0.5 20.5q0 122 -9.5 237.5t-28.5 218t-49 188t-70.5 147t-93 96t-116.5 34.5zM2069 1599q109 203 186 393t134 365l47 12q28 -19 51 -42.5t39.5 -47t26 -44.5 t9.5 -34q0 -21 -19 -61.5t-52 -92.5t-76 -113.5t-91 -124.5t-98 -125t-96 -116zM1976 -831q-52 -26 -100.5 -38t-93.5 -12q-66 0 -112.5 22t-76 60.5t-43 89.5t-13.5 108q0 52 10 107t29 108t45.5 102.5t58.5 90.5l132 14l19 -1q-21 -35 -38.5 -77t-30 -86.5t-19.5 -89 t-7 -83.5q0 -48 12 -91t39.5 -77t71.5 -56.5t108 -29.5z" />
<glyph unicode="&#x3b8;&#x1fc2;" horiz-adv-x="2853" d="M796 2596q99 0 186 -73t152 -221.5t103 -374.5t39 -532q35 2 78.5 5.5t90 7.5t94 9t91.5 10q20 2 35.5 4t33.5 2q50 0 84.5 -24.5t56 -69.5t31 -108t9.5 -141q0 -51 -3 -108.5t-8.5 -116t-11.5 -115.5t-12 -106l11 -1q67 200 141 352.5t147.5 255.5t143.5 155.5t129 52.5 q53 0 96.5 -34t74.5 -103.5t48 -175.5t17 -251q0 -126 -9.5 -293.5t-29.5 -383.5t-51 -484.5t-74 -595.5l-213 -25l-21 1q72 336 121.5 622t80 514.5t44 397t13.5 269.5q0 80 -9 136t-25 91t-38 51t-48 16q-59 0 -135 -76.5t-152.5 -228.5t-144.5 -379t-112 -527l-202 -25 l-22 1q25 115 48 229t41 224t28.5 215.5t10.5 203.5q0 73 -7 135.5t-21.5 107.5t-36.5 70.5t-52 25.5q-19 0 -68 -6q-30 -3 -68 -7t-78.5 -7.5t-80 -6.5t-73.5 -4q-10 -177 -36 -335.5t-66 -292.5t-92.5 -242t-116 -183t-136.5 -115.5t-154 -40.5q-79 0 -144 38.5t-112 113 t-73 183.5t-26 249q0 20 1 43t1 56q0 22 -9.5 40.5t-26 31.5t-38 20t-45.5 7q-30 0 -61.5 -12.5t-59.5 -41.5l-16 5q-19 54 -19 99q0 58 19 100t49.5 69.5t69.5 41t79 13.5q38 0 73.5 -11.5t63.5 -35t44.5 -57.5t16.5 -79q0 -21 -3 -47t-7 -61t-7 -81t-3 -107q0 -76 15 -137 t44 -104t71.5 -66t96.5 -23q83 0 160 62.5t140 184t107.5 300t61.5 411.5h-17q-238 0 -399 39.5t-259.5 117.5t-140.5 193.5t-42 267.5q0 101 17.5 201t50 192t78.5 171t104.5 137t127 91.5t145.5 33.5zM774 2350q-51 0 -99.5 -21t-91.5 -58.5t-79 -88t-62 -109.5 t-40.5 -124t-14.5 -130q0 -66 13 -123.5t43.5 -105t82 -85t129.5 -63.5t184 -39.5t247 -13.5h54q0 10 0.5 19.5t0.5 20.5q0 122 -9.5 237.5t-28.5 218t-49 188t-70.5 147t-93 96t-116.5 34.5zM2199 1568q-33 51 -70.5 111t-74.5 123t-71.5 124t-60.5 115t-41.5 96t-15.5 66 q0 18 12 38.5t32 42.5t45 43.5t52 41.5l44 -12q34 -175 84.5 -363.5t128.5 -393.5zM1976 -831q-52 -26 -100.5 -38t-93.5 -12q-66 0 -112.5 22t-76 60.5t-43 89.5t-13.5 108q0 52 10 107t29 108t45.5 102.5t58.5 90.5l132 14l19 -1q-21 -35 -38.5 -77t-30 -86.5t-19.5 -89 t-7 -83.5q0 -48 12 -91t39.5 -77t71.5 -56.5t108 -29.5z" />
<glyph unicode="&#x3b8;&#x1fc7;" horiz-adv-x="2853" d="M796 2596q99 0 186 -73t152 -221.5t103 -374.5t39 -532q35 2 78.5 5.5t90 7.5t94 9t91.5 10q20 2 35.5 4t33.5 2q50 0 84.5 -24.5t56 -69.5t31 -108t9.5 -141q0 -51 -3 -108.5t-8.5 -116t-11.5 -115.5t-12 -106l11 -1q67 200 141 352.5t147.5 255.5t143.5 155.5t129 52.5 q53 0 96.5 -34t74.5 -103.5t48 -175.5t17 -251q0 -126 -9.5 -293.5t-29.5 -383.5t-51 -484.5t-74 -595.5l-213 -25l-21 1q72 336 121.5 622t80 514.5t44 397t13.5 269.5q0 80 -9 136t-25 91t-38 51t-48 16q-59 0 -135 -76.5t-152.5 -228.5t-144.5 -379t-112 -527l-202 -25 l-22 1q25 115 48 229t41 224t28.5 215.5t10.5 203.5q0 73 -7 135.5t-21.5 107.5t-36.5 70.5t-52 25.5q-19 0 -68 -6q-30 -3 -68 -7t-78.5 -7.5t-80 -6.5t-73.5 -4q-10 -177 -36 -335.5t-66 -292.5t-92.5 -242t-116 -183t-136.5 -115.5t-154 -40.5q-79 0 -144 38.5t-112 113 t-73 183.5t-26 249q0 20 1 43t1 56q0 22 -9.5 40.5t-26 31.5t-38 20t-45.5 7q-30 0 -61.5 -12.5t-59.5 -41.5l-16 5q-19 54 -19 99q0 58 19 100t49.5 69.5t69.5 41t79 13.5q38 0 73.5 -11.5t63.5 -35t44.5 -57.5t16.5 -79q0 -21 -3 -47t-7 -61t-7 -81t-3 -107q0 -76 15 -137 t44 -104t71.5 -66t96.5 -23q83 0 160 62.5t140 184t107.5 300t61.5 411.5h-17q-238 0 -399 39.5t-259.5 117.5t-140.5 193.5t-42 267.5q0 101 17.5 201t50 192t78.5 171t104.5 137t127 91.5t145.5 33.5zM774 2350q-51 0 -99.5 -21t-91.5 -58.5t-79 -88t-62 -109.5 t-40.5 -124t-14.5 -130q0 -66 13 -123.5t43.5 -105t82 -85t129.5 -63.5t184 -39.5t247 -13.5h54q0 10 0.5 19.5t0.5 20.5q0 122 -9.5 237.5t-28.5 218t-49 188t-70.5 147t-93 96t-116.5 34.5zM2741 2164q-33 -110 -73.5 -182.5t-85 -116t-90 -61t-87.5 -17.5 q-58 0 -115 18.5t-111.5 40.5t-105.5 40.5t-98 18.5q-30 0 -59 -9t-56.5 -30.5t-53 -57t-47.5 -88.5l-70 19q30 105 70.5 173.5t86 108.5t93.5 55.5t94 15.5q51 0 102.5 -14t102 -31t99.5 -31t96 -14q43 0 81 15t69 40.5t55 59t40 70.5zM1976 -831q-52 -26 -100.5 -38 t-93.5 -12q-66 0 -112.5 22t-76 60.5t-43 89.5t-13.5 108q0 52 10 107t29 108t45.5 102.5t58.5 90.5l132 14l19 -1q-21 -35 -38.5 -77t-30 -86.5t-19.5 -89t-7 -83.5q0 -48 12 -91t39.5 -77t71.5 -56.5t108 -29.5z" />
<glyph unicode="&#x3b8;&#x3b9;" horiz-adv-x="2261" d="M2018 1417q-14 -77 -30 -172t-31.5 -196t-30 -203.5t-25.5 -195.5t-17.5 -171t-6.5 -130q0 -39 9 -66t24.5 -44t36.5 -25t45 -8q40 0 82 16.5t78 47.5l13 -5q10 -37 10 -78q0 -50 -17.5 -92t-48 -73t-71 -48t-86.5 -17q-83 0 -128 38t-65.5 104t-24 155.5t-3.5 192.5 q0 81 0.5 163t2 171.5t4.5 189t8 213.5q-60 -11 -122 -20.5t-123.5 -17t-120 -12.5t-111.5 -7q-11 -171 -37.5 -325.5t-66.5 -285.5t-92.5 -236.5t-115.5 -179t-136 -113.5t-153 -40q-79 0 -144 38.5t-112 113t-73 183.5t-26 249q0 20 1 43t1 56q0 22 -9.5 40.5t-26 31.5 t-38 20t-45.5 7q-30 0 -61.5 -12.5t-59.5 -41.5l-16 5q-19 54 -19 99q0 58 19 100t49.5 69.5t69.5 41t79 13.5q38 0 73.5 -11.5t63.5 -35t44.5 -57.5t16.5 -79q0 -21 -3 -47t-7 -61t-7 -81t-3 -107q0 -76 15 -137t44 -104t71.5 -66t96.5 -23q82 0 159 61.5t139.5 180 t107 292t62.5 398.5q-237 3 -401 45t-265 123t-146 200t-45 276q0 101 17.5 201t50 192t78.5 171t104.5 137t127 91.5t145.5 33.5q100 0 187.5 -74t152.5 -224.5t102.5 -380t37.5 -540.5v-13q105 2 223.5 8.5t258.5 21.5q8 37 39.5 52t70.5 15q20 0 41 -3.5t41 -9.5 t37.5 -14t30.5 -17zM1141 1429q0 122 -9.5 237.5t-28.5 218t-49 188t-70.5 147t-93 96t-116.5 34.5q-51 0 -99.5 -21t-91.5 -58.5t-79 -88t-62 -109.5t-40.5 -124t-14.5 -130q0 -64 12.5 -122.5t44.5 -109t86.5 -91t138 -69.5t199.5 -45t272 -16q1 8 1 15.5v15.5v32z" />
<glyph unicode="&#x3b8;&#x3af;" horiz-adv-x="2261" d="M2018 1417q-14 -77 -30 -172t-31.5 -196t-30 -203.5t-25.5 -195.5t-17.5 -171t-6.5 -130q0 -39 9 -66t24.5 -44t36.5 -25t45 -8q40 0 82 16.5t78 47.5l13 -5q10 -37 10 -78q0 -50 -17.5 -92t-48 -73t-71 -48t-86.5 -17q-83 0 -128 38t-65.5 104t-24 155.5t-3.5 192.5 q0 81 0.5 163t2 171.5t4.5 189t8 213.5q-60 -11 -122 -20.5t-123.5 -17t-120 -12.5t-111.5 -7q-11 -171 -37.5 -325.5t-66.5 -285.5t-92.5 -236.5t-115.5 -179t-136 -113.5t-153 -40q-79 0 -144 38.5t-112 113t-73 183.5t-26 249q0 20 1 43t1 56q0 22 -9.5 40.5t-26 31.5 t-38 20t-45.5 7q-30 0 -61.5 -12.5t-59.5 -41.5l-16 5q-19 54 -19 99q0 58 19 100t49.5 69.5t69.5 41t79 13.5q38 0 73.5 -11.5t63.5 -35t44.5 -57.5t16.5 -79q0 -21 -3 -47t-7 -61t-7 -81t-3 -107q0 -76 15 -137t44 -104t71.5 -66t96.5 -23q82 0 159 61.5t139.5 180 t107 292t62.5 398.5q-237 3 -401 45t-265 123t-146 200t-45 276q0 101 17.5 201t50 192t78.5 171t104.5 137t127 91.5t145.5 33.5q100 0 187.5 -74t152.5 -224.5t102.5 -380t37.5 -540.5v-13q105 2 223.5 8.5t258.5 21.5q8 37 39.5 52t70.5 15q20 0 41 -3.5t41 -9.5 t37.5 -14t30.5 -17zM1141 1429q0 122 -9.5 237.5t-28.5 218t-49 188t-70.5 147t-93 96t-116.5 34.5q-51 0 -99.5 -21t-91.5 -58.5t-79 -88t-62 -109.5t-40.5 -124t-14.5 -130q0 -64 12.5 -122.5t44.5 -109t86.5 -91t138 -69.5t199.5 -45t272 -16q1 8 1 15.5v15.5v32z M1803 1599q109 203 186 393t134 365l47 12q28 -19 51 -42.5t39.5 -47t26 -44.5t9.5 -34q0 -21 -19 -61.5t-52 -92.5t-76 -113.5t-91 -124.5t-98 -125t-96 -116z" />
<glyph unicode="&#x3b8;&#x1f76;" horiz-adv-x="2261" d="M2018 1417q-14 -77 -30 -172t-31.5 -196t-30 -203.5t-25.5 -195.5t-17.5 -171t-6.5 -130q0 -39 9 -66t24.5 -44t36.5 -25t45 -8q40 0 82 16.5t78 47.5l13 -5q10 -37 10 -78q0 -50 -17.5 -92t-48 -73t-71 -48t-86.5 -17q-83 0 -128 38t-65.5 104t-24 155.5t-3.5 192.5 q0 81 0.5 163t2 171.5t4.5 189t8 213.5q-60 -11 -122 -20.5t-123.5 -17t-120 -12.5t-111.5 -7q-11 -171 -37.5 -325.5t-66.5 -285.5t-92.5 -236.5t-115.5 -179t-136 -113.5t-153 -40q-79 0 -144 38.5t-112 113t-73 183.5t-26 249q0 20 1 43t1 56q0 22 -9.5 40.5t-26 31.5 t-38 20t-45.5 7q-30 0 -61.5 -12.5t-59.5 -41.5l-16 5q-19 54 -19 99q0 58 19 100t49.5 69.5t69.5 41t79 13.5q38 0 73.5 -11.5t63.5 -35t44.5 -57.5t16.5 -79q0 -21 -3 -47t-7 -61t-7 -81t-3 -107q0 -76 15 -137t44 -104t71.5 -66t96.5 -23q82 0 159 61.5t139.5 180 t107 292t62.5 398.5q-237 3 -401 45t-265 123t-146 200t-45 276q0 101 17.5 201t50 192t78.5 171t104.5 137t127 91.5t145.5 33.5q100 0 187.5 -74t152.5 -224.5t102.5 -380t37.5 -540.5v-13q105 2 223.5 8.5t258.5 21.5q8 37 39.5 52t70.5 15q20 0 41 -3.5t41 -9.5 t37.5 -14t30.5 -17zM1141 1429q0 122 -9.5 237.5t-28.5 218t-49 188t-70.5 147t-93 96t-116.5 34.5q-51 0 -99.5 -21t-91.5 -58.5t-79 -88t-62 -109.5t-40.5 -124t-14.5 -130q0 -64 12.5 -122.5t44.5 -109t86.5 -91t138 -69.5t199.5 -45t272 -16q1 8 1 15.5v15.5v32z M1933 1568q-33 51 -70.5 111t-74.5 123t-71.5 124t-60.5 115t-41.5 96t-15.5 66q0 18 12 38.5t32 42.5t45 43.5t52 41.5l44 -12q34 -175 84.5 -363.5t128.5 -393.5z" />
<glyph unicode="&#x3b8;&#x1fd6;" horiz-adv-x="2261" d="M2018 1417q-14 -77 -30 -172t-31.5 -196t-30 -203.5t-25.5 -195.5t-17.5 -171t-6.5 -130q0 -39 9 -66t24.5 -44t36.5 -25t45 -8q40 0 82 16.5t78 47.5l13 -5q10 -37 10 -78q0 -50 -17.5 -92t-48 -73t-71 -48t-86.5 -17q-83 0 -128 38t-65.5 104t-24 155.5t-3.5 192.5 q0 81 0.5 163t2 171.5t4.5 189t8 213.5q-60 -11 -122 -20.5t-123.5 -17t-120 -12.5t-111.5 -7q-11 -171 -37.5 -325.5t-66.5 -285.5t-92.5 -236.5t-115.5 -179t-136 -113.5t-153 -40q-79 0 -144 38.5t-112 113t-73 183.5t-26 249q0 20 1 43t1 56q0 22 -9.5 40.5t-26 31.5 t-38 20t-45.5 7q-30 0 -61.5 -12.5t-59.5 -41.5l-16 5q-19 54 -19 99q0 58 19 100t49.5 69.5t69.5 41t79 13.5q38 0 73.5 -11.5t63.5 -35t44.5 -57.5t16.5 -79q0 -21 -3 -47t-7 -61t-7 -81t-3 -107q0 -76 15 -137t44 -104t71.5 -66t96.5 -23q82 0 159 61.5t139.5 180 t107 292t62.5 398.5q-237 3 -401 45t-265 123t-146 200t-45 276q0 101 17.5 201t50 192t78.5 171t104.5 137t127 91.5t145.5 33.5q100 0 187.5 -74t152.5 -224.5t102.5 -380t37.5 -540.5v-13q105 2 223.5 8.5t258.5 21.5q8 37 39.5 52t70.5 15q20 0 41 -3.5t41 -9.5 t37.5 -14t30.5 -17zM1141 1429q0 122 -9.5 237.5t-28.5 218t-49 188t-70.5 147t-93 96t-116.5 34.5q-51 0 -99.5 -21t-91.5 -58.5t-79 -88t-62 -109.5t-40.5 -124t-14.5 -130q0 -64 12.5 -122.5t44.5 -109t86.5 -91t138 -69.5t199.5 -45t272 -16q1 8 1 15.5v15.5v32z M2475 2164q-33 -110 -73.5 -182.5t-85 -116t-90 -61t-87.5 -17.5q-58 0 -115 18.5t-111.5 40.5t-105.5 40.5t-98 18.5q-30 0 -59 -9t-56.5 -30.5t-53 -57t-47.5 -88.5l-70 19q30 105 70.5 173.5t86 108.5t93.5 55.5t94 15.5q51 0 102.5 -14t102 -31t99.5 -31t96 -14 q43 0 81 15t69 40.5t55 59t40 70.5z" />
<glyph unicode="&#x3b8;&#x3bd;" horiz-adv-x="2609" d="M1578 1186q-11 0 -26.5 -1.5t-40.5 -4.5q-20 -2 -47.5 -5.5t-59.5 -7.5t-66.5 -7t-68.5 -4q-10 -177 -36 -335.5t-66 -292.5t-92.5 -242t-116 -183t-136.5 -115.5t-154 -40.5q-79 0 -144 38.5t-112 113t-73 183.5t-26 249q0 20 1 43t1 56q0 22 -9.5 40.5t-26 31.5t-38 20 t-45.5 7q-30 0 -61.5 -12.5t-59.5 -41.5l-16 5q-19 54 -19 99q0 58 19 100t49.5 69.5t69.5 41t79 13.5q38 0 73.5 -11.5t63.5 -35t44.5 -57.5t16.5 -79q0 -21 -3 -47t-7 -61t-7 -81t-3 -107q0 -76 15 -137t44 -104t71.5 -66t96.5 -23q83 0 160 62.5t140 184t107.5 300 t61.5 411.5h-17q-238 0 -399 39.5t-259.5 117.5t-140.5 193.5t-42 267.5q0 101 17.5 201t50 192t78.5 171t104.5 137t127 91.5t145.5 33.5q99 0 186 -73t152 -221.5t103 -374.5t39 -532q31 2 67.5 5t72.5 7t68.5 7.5t56.5 6.5q29 4 55 7.5t45 3.5q45 0 82 -22t66.5 -75 t51.5 -141t36.5 -220.5t22 -313.5t7.5 -419l4 -1q106 137 183.5 260t127.5 241.5t74.5 237t24.5 247.5q0 96 -15 201l90 35q98 -188 98 -394q0 -260 -140 -535t-424 -570l-130 16q-11 225 -22 402t-24 311t-29 228t-37 153t-48 86t-62 27zM774 2350q-51 0 -99.5 -21 t-91.5 -58.5t-79 -88t-62 -109.5t-40.5 -124t-14.5 -130q0 -66 13 -123.5t43.5 -105t82 -85t129.5 -63.5t184 -39.5t247 -13.5h54q0 10 0.5 19.5t0.5 20.5q0 122 -9.5 237.5t-28.5 218t-49 188t-70.5 147t-93 96t-116.5 34.5z" />
<glyph unicode="&#x3b8;&#x3bf;" horiz-adv-x="2776" d="M59 680q-19 54 -19 99q0 58 19 100t49.5 69.5t69.5 41t79 13.5q38 0 73.5 -11.5t63.5 -35t44.5 -57.5t16.5 -79q0 -21 -3 -47t-7 -61t-7 -81t-3 -107q0 -76 15 -137t44 -104t71.5 -66t96.5 -23q82 0 159 62t139.5 182t107 296.5t62.5 406.5q-241 3 -405 44.5 t-264.5 120.5t-144 195t-43.5 269q0 101 17.5 201t50 192t78.5 171t104.5 137t127 91.5t145.5 33.5q100 0 187.5 -74t152.5 -224.5t102.5 -380t37.5 -540.5v-8q81 1 185 6t216 14t224 23t208 35q26 5 52.5 8.5t54.5 3.5q113 0 196 -52t138 -139.5t81.5 -202t26.5 -239.5 q0 -104 -18 -209.5t-53.5 -203t-88 -183t-121.5 -148.5t-153.5 -99.5t-184.5 -36.5q-73 0 -132.5 23.5t-107.5 66t-83.5 101.5t-59 129t-35 149.5t-11.5 162.5q0 79 11 162.5t32 163t52 151t72 126.5l-4 5q-136 -22 -265.5 -31.5t-238.5 -12.5q-16 -263 -67 -482.5 t-129.5 -378t-181.5 -246.5t-223 -88q-79 0 -144 38.5t-112 113t-73 183.5t-26 249q0 20 1 43t1 56q0 22 -9.5 40.5t-26 31.5t-38 20t-45.5 7q-30 0 -61.5 -12.5t-59.5 -41.5zM2245 1210q-81 0 -151 -28t-127 -75.5t-101.5 -111t-74.5 -135.5t-45.5 -148.5t-15.5 -148.5 q0 -75 17 -141.5t52.5 -117t90 -80t128.5 -29.5q80 0 150 28t127.5 76.5t102.5 112.5t76 136.5t47 149t16 149.5q0 74 -17 140t-53 115.5t-91 78.5t-131 29zM1141 1429q0 122 -9.5 237.5t-28.5 218t-49 188t-70.5 147t-93 96t-116.5 34.5q-51 0 -99.5 -21t-91.5 -58.5 t-79 -88t-62 -109.5t-40.5 -124t-14.5 -130q0 -68 14 -127t47 -108t89 -88t139.5 -66.5t198 -43t265.5 -18.5q1 8 1 15v15v31z" />
<glyph unicode="&#x3b8;&#x3cc;" horiz-adv-x="2776" d="M59 680q-19 54 -19 99q0 58 19 100t49.5 69.5t69.5 41t79 13.5q38 0 73.5 -11.5t63.5 -35t44.5 -57.5t16.5 -79q0 -21 -3 -47t-7 -61t-7 -81t-3 -107q0 -76 15 -137t44 -104t71.5 -66t96.5 -23q82 0 159 62t139.5 182t107 296.5t62.5 406.5q-241 3 -405 44.5 t-264.5 120.5t-144 195t-43.5 269q0 101 17.5 201t50 192t78.5 171t104.5 137t127 91.5t145.5 33.5q100 0 187.5 -74t152.5 -224.5t102.5 -380t37.5 -540.5v-8q81 1 185 6t216 14t224 23t208 35q26 5 52.5 8.5t54.5 3.5q113 0 196 -52t138 -139.5t81.5 -202t26.5 -239.5 q0 -104 -18 -209.5t-53.5 -203t-88 -183t-121.5 -148.5t-153.5 -99.5t-184.5 -36.5q-73 0 -132.5 23.5t-107.5 66t-83.5 101.5t-59 129t-35 149.5t-11.5 162.5q0 79 11 162.5t32 163t52 151t72 126.5l-4 5q-136 -22 -265.5 -31.5t-238.5 -12.5q-16 -263 -67 -482.5 t-129.5 -378t-181.5 -246.5t-223 -88q-79 0 -144 38.5t-112 113t-73 183.5t-26 249q0 20 1 43t1 56q0 22 -9.5 40.5t-26 31.5t-38 20t-45.5 7q-30 0 -61.5 -12.5t-59.5 -41.5zM2245 1210q-81 0 -151 -28t-127 -75.5t-101.5 -111t-74.5 -135.5t-45.5 -148.5t-15.5 -148.5 q0 -75 17 -141.5t52.5 -117t90 -80t128.5 -29.5q80 0 150 28t127.5 76.5t102.5 112.5t76 136.5t47 149t16 149.5q0 74 -17 140t-53 115.5t-91 78.5t-131 29zM1141 1429q0 122 -9.5 237.5t-28.5 218t-49 188t-70.5 147t-93 96t-116.5 34.5q-51 0 -99.5 -21t-91.5 -58.5 t-79 -88t-62 -109.5t-40.5 -124t-14.5 -130q0 -68 14 -127t47 -108t89 -88t139.5 -66.5t198 -43t265.5 -18.5q1 8 1 15v15v31zM2090 1599q109 203 186 393t134 365l47 12q28 -19 51 -42.5t39.5 -47t26 -44.5t9.5 -34q0 -21 -19 -61.5t-52 -92.5t-76 -113.5t-91 -124.5 t-98 -125t-96 -116z" />
<glyph unicode="&#x3b8;&#x1f78;" horiz-adv-x="2776" d="M59 680q-19 54 -19 99q0 58 19 100t49.5 69.5t69.5 41t79 13.5q38 0 73.5 -11.5t63.5 -35t44.5 -57.5t16.5 -79q0 -21 -3 -47t-7 -61t-7 -81t-3 -107q0 -76 15 -137t44 -104t71.5 -66t96.5 -23q82 0 159 62t139.5 182t107 296.5t62.5 406.5q-241 3 -405 44.5 t-264.5 120.5t-144 195t-43.5 269q0 101 17.5 201t50 192t78.5 171t104.5 137t127 91.5t145.5 33.5q100 0 187.5 -74t152.5 -224.5t102.5 -380t37.5 -540.5v-8q81 1 185 6t216 14t224 23t208 35q26 5 52.5 8.5t54.5 3.5q113 0 196 -52t138 -139.5t81.5 -202t26.5 -239.5 q0 -104 -18 -209.5t-53.5 -203t-88 -183t-121.5 -148.5t-153.5 -99.5t-184.5 -36.5q-73 0 -132.5 23.5t-107.5 66t-83.5 101.5t-59 129t-35 149.5t-11.5 162.5q0 79 11 162.5t32 163t52 151t72 126.5l-4 5q-136 -22 -265.5 -31.5t-238.5 -12.5q-16 -263 -67 -482.5 t-129.5 -378t-181.5 -246.5t-223 -88q-79 0 -144 38.5t-112 113t-73 183.5t-26 249q0 20 1 43t1 56q0 22 -9.5 40.5t-26 31.5t-38 20t-45.5 7q-30 0 -61.5 -12.5t-59.5 -41.5zM2245 1210q-81 0 -151 -28t-127 -75.5t-101.5 -111t-74.5 -135.5t-45.5 -148.5t-15.5 -148.5 q0 -75 17 -141.5t52.5 -117t90 -80t128.5 -29.5q80 0 150 28t127.5 76.5t102.5 112.5t76 136.5t47 149t16 149.5q0 74 -17 140t-53 115.5t-91 78.5t-131 29zM1141 1429q0 122 -9.5 237.5t-28.5 218t-49 188t-70.5 147t-93 96t-116.5 34.5q-51 0 -99.5 -21t-91.5 -58.5 t-79 -88t-62 -109.5t-40.5 -124t-14.5 -130q0 -68 14 -127t47 -108t89 -88t139.5 -66.5t198 -43t265.5 -18.5q1 8 1 15v15v31zM2220 1568q-33 51 -70.5 111t-74.5 123t-71.5 124t-60.5 115t-41.5 96t-15.5 66q0 18 12 38.5t32 42.5t45 43.5t52 41.5l44 -12 q34 -175 84.5 -363.5t128.5 -393.5z" />
<glyph unicode="&#x3b8;&#x3c1;" horiz-adv-x="2822" d="M1269 1141q-16 -263 -67 -482t-129.5 -377.5t-181.5 -246.5t-223 -88q-79 0 -144 38.5t-112 113t-73 183.5t-26 249q0 20 1 43t1 56q0 22 -9.5 40.5t-26 31.5t-38 20t-45.5 7q-30 0 -61.5 -12.5t-59.5 -41.5l-16 5q-19 54 -19 99q0 58 19 100t49.5 69.5t69.5 41t79 13.5 q38 0 73.5 -11.5t63.5 -35t44.5 -57.5t16.5 -79q0 -21 -3 -47t-7 -61t-7 -81t-3 -107q0 -76 15 -137t44 -104t71.5 -66t96.5 -23q82 0 159 62t139.5 182t107 296.5t62.5 406.5q-242 3 -406 44t-264.5 120t-143.5 195.5t-43 269.5q0 101 17.5 201t50 192t78.5 171t104.5 137 t127 91.5t145.5 33.5q100 0 187.5 -74t152.5 -224.5t102.5 -380t37.5 -540.5v-6q169 4 299.5 14t230 21t170.5 22.5t121 18.5q38 5 68 7.5t56 2.5q81 0 148 -24.5t120 -67.5t92.5 -102.5t65 -130.5t38.5 -149.5t13 -160.5q0 -118 -22 -227.5t-60 -204.5t-90 -173t-113 -134 t-128 -86.5t-134 -30.5q-50 0 -99 18t-95 56.5t-87.5 98.5t-76.5 144l-8 -2q6 -188 10 -393.5t4 -446.5v-142q0 -37 -0.5 -75.5t-1.5 -79.5l-202 -31l-23 1q17 158 28.5 329t19 343.5t12 340t6 318.5t2 280t0.5 225q0 52 30 73.5t84 21.5q26 0 55 -5.5t58 -14.5 q-24 -105 -40.5 -210.5t-16.5 -208.5q0 -84 14 -157t46.5 -127.5t86 -86t132.5 -31.5q78 0 144 29t119.5 78.5t94.5 114t69 135.5t42 143t14 137q0 92 -28.5 162.5t-75 118t-106 72t-120.5 24.5q-25 0 -53 -2t-64 -6q-60 -6 -138 -15.5t-181.5 -20t-235.5 -19.5t-301 -14z M1141 1429q0 122 -9.5 237.5t-28.5 218t-49 188t-70.5 147t-93 96t-116.5 34.5q-51 0 -99.5 -21t-91.5 -58.5t-79 -88t-62 -109.5t-40.5 -124t-14.5 -130q0 -68 13.5 -126.5t46.5 -107.5t88.5 -87.5t139.5 -66t198.5 -42.5t266.5 -17q1 8 1 14.5v13.5v29z" />
<glyph unicode="&#x3b8;&#x3c5;" horiz-adv-x="2845" d="M1269 1156q-10 -177 -36 -335.5t-66 -292.5t-92.5 -242t-116 -183t-136.5 -115.5t-154 -40.5q-79 0 -144 38.5t-112 113t-73 183.5t-26 249q0 20 1 43t1 56q0 22 -9.5 40.5t-26 31.5t-38 20t-45.5 7q-30 0 -61.5 -12.5t-59.5 -41.5l-16 5q-19 54 -19 99q0 58 19 100 t49.5 69.5t69.5 41t79 13.5q38 0 73.5 -11.5t63.5 -35t44.5 -57.5t16.5 -79q0 -21 -3 -47t-7 -61t-7 -81t-3 -107q0 -76 15 -137t44 -104t71.5 -66t96.5 -23q83 0 160 62.5t140 184t107.5 300t61.5 411.5h-17q-238 0 -399 39.5t-259.5 117.5t-140.5 193.5t-42 267.5 q0 101 17.5 201t50 192t78.5 171t104.5 137t127 91.5t145.5 33.5q99 0 186 -73t152 -221.5t103 -374.5t39 -532q78 4 171 12t190 19q22 2 46.5 4t44.5 2q33 0 61.5 -15t48.5 -40t31.5 -58t11.5 -69q0 -53 -19.5 -126.5t-43 -160.5t-43 -184t-19.5 -199q0 -75 11.5 -144 t41.5 -122.5t81 -85.5t131 -32q106 0 184 55.5t129 145.5t75.5 204t24.5 231q0 78 -9 156.5t-26.5 152t-42.5 139.5t-57 120l85 47q54 -67 95.5 -148.5t70 -171t43.5 -183.5t15 -187q0 -94 -16.5 -190.5t-49 -186.5t-80.5 -169t-112 -137.5t-143.5 -92t-173.5 -33.5 q-102 0 -180 43.5t-131 120t-80 182t-27 229.5q0 100 17.5 187t38.5 159.5t38.5 129.5t17.5 97q0 48 -21 70t-49 22q-15 0 -37.5 -3t-42.5 -5q-70 -8 -151.5 -14.5t-156.5 -9.5zM774 2350q-51 0 -99.5 -21t-91.5 -58.5t-79 -88t-62 -109.5t-40.5 -124t-14.5 -130 q0 -66 13 -123.5t43.5 -105t82 -85t129.5 -63.5t184 -39.5t247 -13.5h54q0 10 0.5 19.5t0.5 20.5q0 122 -9.5 237.5t-28.5 218t-49 188t-70.5 147t-93 96t-116.5 34.5z" />
<glyph unicode="&#x3b8;&#x3cd;" horiz-adv-x="2845" d="M1269 1156q-10 -177 -36 -335.5t-66 -292.5t-92.5 -242t-116 -183t-136.5 -115.5t-154 -40.5q-79 0 -144 38.5t-112 113t-73 183.5t-26 249q0 20 1 43t1 56q0 22 -9.5 40.5t-26 31.5t-38 20t-45.5 7q-30 0 -61.5 -12.5t-59.5 -41.5l-16 5q-19 54 -19 99q0 58 19 100 t49.5 69.5t69.5 41t79 13.5q38 0 73.5 -11.5t63.5 -35t44.5 -57.5t16.5 -79q0 -21 -3 -47t-7 -61t-7 -81t-3 -107q0 -76 15 -137t44 -104t71.5 -66t96.5 -23q83 0 160 62.5t140 184t107.5 300t61.5 411.5h-17q-238 0 -399 39.5t-259.5 117.5t-140.5 193.5t-42 267.5 q0 101 17.5 201t50 192t78.5 171t104.5 137t127 91.5t145.5 33.5q99 0 186 -73t152 -221.5t103 -374.5t39 -532q78 4 171 12t190 19q22 2 46.5 4t44.5 2q33 0 61.5 -15t48.5 -40t31.5 -58t11.5 -69q0 -53 -19.5 -126.5t-43 -160.5t-43 -184t-19.5 -199q0 -75 11.5 -144 t41.5 -122.5t81 -85.5t131 -32q106 0 184 55.5t129 145.5t75.5 204t24.5 231q0 78 -9 156.5t-26.5 152t-42.5 139.5t-57 120l85 47q54 -67 95.5 -148.5t70 -171t43.5 -183.5t15 -187q0 -94 -16.5 -190.5t-49 -186.5t-80.5 -169t-112 -137.5t-143.5 -92t-173.5 -33.5 q-102 0 -180 43.5t-131 120t-80 182t-27 229.5q0 100 17.5 187t38.5 159.5t38.5 129.5t17.5 97q0 48 -21 70t-49 22q-15 0 -37.5 -3t-42.5 -5q-70 -8 -151.5 -14.5t-156.5 -9.5zM774 2350q-51 0 -99.5 -21t-91.5 -58.5t-79 -88t-62 -109.5t-40.5 -124t-14.5 -130 q0 -66 13 -123.5t43.5 -105t82 -85t129.5 -63.5t184 -39.5t247 -13.5h54q0 10 0.5 19.5t0.5 20.5q0 122 -9.5 237.5t-28.5 218t-49 188t-70.5 147t-93 96t-116.5 34.5zM1970 1599q109 203 186 393t134 365l47 12q28 -19 51 -42.5t39.5 -47t26 -44.5t9.5 -34q0 -21 -19 -61.5 t-52 -92.5t-76 -113.5t-91 -124.5t-98 -125t-96 -116z" />
<glyph unicode="&#x3b8;&#x1f7a;" horiz-adv-x="2845" d="M1269 1156q-10 -177 -36 -335.5t-66 -292.5t-92.5 -242t-116 -183t-136.5 -115.5t-154 -40.5q-79 0 -144 38.5t-112 113t-73 183.5t-26 249q0 20 1 43t1 56q0 22 -9.5 40.5t-26 31.5t-38 20t-45.5 7q-30 0 -61.5 -12.5t-59.5 -41.5l-16 5q-19 54 -19 99q0 58 19 100 t49.5 69.5t69.5 41t79 13.5q38 0 73.5 -11.5t63.5 -35t44.5 -57.5t16.5 -79q0 -21 -3 -47t-7 -61t-7 -81t-3 -107q0 -76 15 -137t44 -104t71.5 -66t96.5 -23q83 0 160 62.5t140 184t107.5 300t61.5 411.5h-17q-238 0 -399 39.5t-259.5 117.5t-140.5 193.5t-42 267.5 q0 101 17.5 201t50 192t78.5 171t104.5 137t127 91.5t145.5 33.5q99 0 186 -73t152 -221.5t103 -374.5t39 -532q78 4 171 12t190 19q22 2 46.5 4t44.5 2q33 0 61.5 -15t48.5 -40t31.5 -58t11.5 -69q0 -53 -19.5 -126.5t-43 -160.5t-43 -184t-19.5 -199q0 -75 11.5 -144 t41.5 -122.5t81 -85.5t131 -32q106 0 184 55.5t129 145.5t75.5 204t24.5 231q0 78 -9 156.5t-26.5 152t-42.5 139.5t-57 120l85 47q54 -67 95.5 -148.5t70 -171t43.5 -183.5t15 -187q0 -94 -16.5 -190.5t-49 -186.5t-80.5 -169t-112 -137.5t-143.5 -92t-173.5 -33.5 q-102 0 -180 43.5t-131 120t-80 182t-27 229.5q0 100 17.5 187t38.5 159.5t38.5 129.5t17.5 97q0 48 -21 70t-49 22q-15 0 -37.5 -3t-42.5 -5q-70 -8 -151.5 -14.5t-156.5 -9.5zM774 2350q-51 0 -99.5 -21t-91.5 -58.5t-79 -88t-62 -109.5t-40.5 -124t-14.5 -130 q0 -66 13 -123.5t43.5 -105t82 -85t129.5 -63.5t184 -39.5t247 -13.5h54q0 10 0.5 19.5t0.5 20.5q0 122 -9.5 237.5t-28.5 218t-49 188t-70.5 147t-93 96t-116.5 34.5zM2220 1568q-33 51 -70.5 111t-74.5 123t-71.5 124t-60.5 115t-41.5 96t-15.5 66q0 18 12 38.5t32 42.5 t45 43.5t52 41.5l44 -12q34 -175 84.5 -363.5t128.5 -393.5z" />
<glyph unicode="&#x3b8;&#x1fe6;" horiz-adv-x="2845" d="M1269 1156q-10 -177 -36 -335.5t-66 -292.5t-92.5 -242t-116 -183t-136.5 -115.5t-154 -40.5q-79 0 -144 38.5t-112 113t-73 183.5t-26 249q0 20 1 43t1 56q0 22 -9.5 40.5t-26 31.5t-38 20t-45.5 7q-30 0 -61.5 -12.5t-59.5 -41.5l-16 5q-19 54 -19 99q0 58 19 100 t49.5 69.5t69.5 41t79 13.5q38 0 73.5 -11.5t63.5 -35t44.5 -57.5t16.5 -79q0 -21 -3 -47t-7 -61t-7 -81t-3 -107q0 -76 15 -137t44 -104t71.5 -66t96.5 -23q83 0 160 62.5t140 184t107.5 300t61.5 411.5h-17q-238 0 -399 39.5t-259.5 117.5t-140.5 193.5t-42 267.5 q0 101 17.5 201t50 192t78.5 171t104.5 137t127 91.5t145.5 33.5q99 0 186 -73t152 -221.5t103 -374.5t39 -532q78 4 171 12t190 19q22 2 46.5 4t44.5 2q33 0 61.5 -15t48.5 -40t31.5 -58t11.5 -69q0 -53 -19.5 -126.5t-43 -160.5t-43 -184t-19.5 -199q0 -75 11.5 -144 t41.5 -122.5t81 -85.5t131 -32q106 0 184 55.5t129 145.5t75.5 204t24.5 231q0 78 -9 156.5t-26.5 152t-42.5 139.5t-57 120l85 47q54 -67 95.5 -148.5t70 -171t43.5 -183.5t15 -187q0 -94 -16.5 -190.5t-49 -186.5t-80.5 -169t-112 -137.5t-143.5 -92t-173.5 -33.5 q-102 0 -180 43.5t-131 120t-80 182t-27 229.5q0 100 17.5 187t38.5 159.5t38.5 129.5t17.5 97q0 48 -21 70t-49 22q-15 0 -37.5 -3t-42.5 -5q-70 -8 -151.5 -14.5t-156.5 -9.5zM774 2350q-51 0 -99.5 -21t-91.5 -58.5t-79 -88t-62 -109.5t-40.5 -124t-14.5 -130 q0 -66 13 -123.5t43.5 -105t82 -85t129.5 -63.5t184 -39.5t247 -13.5h54q0 10 0.5 19.5t0.5 20.5q0 122 -9.5 237.5t-28.5 218t-49 188t-70.5 147t-93 96t-116.5 34.5zM2762 2164q-33 -110 -73.5 -182.5t-85 -116t-90 -61t-87.5 -17.5q-58 0 -115 18.5t-111.5 40.5 t-105.5 40.5t-98 18.5q-30 0 -59 -9t-56.5 -30.5t-53 -57t-47.5 -88.5l-70 19q30 105 70.5 173.5t86 108.5t93.5 55.5t94 15.5q51 0 102.5 -14t102 -31t99.5 -31t96 -14q43 0 81 15t69 40.5t55 59t40 70.5z" />
<glyph unicode="&#x3b8;&#x3c9;" horiz-adv-x="3308" d="M59 680q-19 54 -19 99q0 58 19 100t49.5 69.5t69.5 41t79 13.5q38 0 73.5 -11.5t63.5 -35t44.5 -57.5t16.5 -79q0 -21 -3 -47t-7 -61t-7 -81t-3 -107q0 -76 15 -137t44 -104t71.5 -66t96.5 -23q82 0 159 61.5t139.5 181.5t107 296t62.5 406q-247 4 -411.5 47t-263.5 123 t-140.5 195.5t-41.5 265.5q0 101 17.5 201t50 192t78.5 171t104.5 137t127 91.5t145.5 33.5q100 0 187.5 -74t152.5 -224.5t102.5 -380t37.5 -540.5v-10q139 2 299 13t358 32q23 17 44.5 28t40.5 11q21 0 50.5 -12.5t56.5 -29.5t45.5 -36t18.5 -31q0 -23 -33.5 -53 t-108.5 -62q-73 -71 -129 -151t-94 -164t-57.5 -169t-19.5 -164q0 -98 24 -170t64 -119.5t91.5 -71t105.5 -23.5q67 0 133.5 44t120.5 135q-17 52 -28 121t-11 141q0 57 8 113.5t27.5 101.5t50.5 73t78 28q35 0 59 -17.5t38.5 -46t20.5 -65t6 -75.5q0 -57 -10.5 -115.5 t-26 -112t-35 -100t-37.5 -79.5q30 -73 89 -111t125 -38q61 0 122.5 35.5t111 109.5t80.5 188t31 271q0 82 -15.5 163.5t-45.5 157.5t-75 143.5t-104 120.5l69 70q95 -71 163 -156t111.5 -179.5t64 -195t20.5 -201.5q0 -99 -17.5 -195t-50 -182t-78 -158.5t-102.5 -125.5 t-124 -82.5t-141 -29.5q-100 0 -176.5 70t-128.5 203h-6q-72 -135 -168 -204t-199 -69q-73 0 -139 45t-116 129t-79.5 205.5t-29.5 274.5q0 85 10 167t28.5 156.5t44.5 140t58 116.5l-4 5q-132 -21 -255.5 -31.5t-231.5 -13.5q-17 -262 -67.5 -481t-128.5 -377.5 t-180.5 -246.5t-223.5 -88q-79 0 -144 38.5t-112 113t-73 183.5t-26 249q0 20 1 43t1 56q0 22 -9.5 40.5t-26 31.5t-38 20t-45.5 7q-30 0 -61.5 -12.5t-59.5 -41.5zM1141 1429q0 122 -9.5 237.5t-28.5 218t-49 188t-70.5 147t-93 96t-116.5 34.5q-51 0 -99.5 -21 t-91.5 -58.5t-79 -88t-62 -109.5t-40.5 -124t-14.5 -130q0 -67 13 -125.5t45 -107.5t87 -88.5t138.5 -67t199.5 -43.5t270 -19q1 7 1 14.5v15.5v31z" />
<glyph unicode="&#x3b8;&#x3ce;" horiz-adv-x="3308" d="M59 680q-19 54 -19 99q0 58 19 100t49.5 69.5t69.5 41t79 13.5q38 0 73.5 -11.5t63.5 -35t44.5 -57.5t16.5 -79q0 -21 -3 -47t-7 -61t-7 -81t-3 -107q0 -76 15 -137t44 -104t71.5 -66t96.5 -23q82 0 159 61.5t139.5 181.5t107 296t62.5 406q-247 4 -411.5 47t-263.5 123 t-140.5 195.5t-41.5 265.5q0 101 17.5 201t50 192t78.5 171t104.5 137t127 91.5t145.5 33.5q100 0 187.5 -74t152.5 -224.5t102.5 -380t37.5 -540.5v-10q139 2 299 13t358 32q23 17 44.5 28t40.5 11q21 0 50.5 -12.5t56.5 -29.5t45.5 -36t18.5 -31q0 -23 -33.5 -53 t-108.5 -62q-73 -71 -129 -151t-94 -164t-57.5 -169t-19.5 -164q0 -98 24 -170t64 -119.5t91.5 -71t105.5 -23.5q67 0 133.5 44t120.5 135q-17 52 -28 121t-11 141q0 57 8 113.5t27.5 101.5t50.5 73t78 28q35 0 59 -17.5t38.5 -46t20.5 -65t6 -75.5q0 -57 -10.5 -115.5 t-26 -112t-35 -100t-37.5 -79.5q30 -73 89 -111t125 -38q61 0 122.5 35.5t111 109.5t80.5 188t31 271q0 82 -15.5 163.5t-45.5 157.5t-75 143.5t-104 120.5l69 70q95 -71 163 -156t111.5 -179.5t64 -195t20.5 -201.5q0 -99 -17.5 -195t-50 -182t-78 -158.5t-102.5 -125.5 t-124 -82.5t-141 -29.5q-100 0 -176.5 70t-128.5 203h-6q-72 -135 -168 -204t-199 -69q-73 0 -139 45t-116 129t-79.5 205.5t-29.5 274.5q0 85 10 167t28.5 156.5t44.5 140t58 116.5l-4 5q-132 -21 -255.5 -31.5t-231.5 -13.5q-17 -262 -67.5 -481t-128.5 -377.5 t-180.5 -246.5t-223.5 -88q-79 0 -144 38.5t-112 113t-73 183.5t-26 249q0 20 1 43t1 56q0 22 -9.5 40.5t-26 31.5t-38 20t-45.5 7q-30 0 -61.5 -12.5t-59.5 -41.5zM1141 1429q0 122 -9.5 237.5t-28.5 218t-49 188t-70.5 147t-93 96t-116.5 34.5q-51 0 -99.5 -21 t-91.5 -58.5t-79 -88t-62 -109.5t-40.5 -124t-14.5 -130q0 -67 13 -125.5t45 -107.5t87 -88.5t138.5 -67t199.5 -43.5t270 -19q1 7 1 14.5v15.5v31zM2328 1599q109 203 186 393t134 365l47 12q28 -19 51 -42.5t39.5 -47t26 -44.5t9.5 -34q0 -21 -19 -61.5t-52 -92.5 t-76 -113.5t-91 -124.5t-98 -125t-96 -116z" />
<glyph unicode="&#x3b8;&#x1f7c;" horiz-adv-x="3308" d="M59 680q-19 54 -19 99q0 58 19 100t49.5 69.5t69.5 41t79 13.5q38 0 73.5 -11.5t63.5 -35t44.5 -57.5t16.5 -79q0 -21 -3 -47t-7 -61t-7 -81t-3 -107q0 -76 15 -137t44 -104t71.5 -66t96.5 -23q82 0 159 61.5t139.5 181.5t107 296t62.5 406q-247 4 -411.5 47t-263.5 123 t-140.5 195.5t-41.5 265.5q0 101 17.5 201t50 192t78.5 171t104.5 137t127 91.5t145.5 33.5q100 0 187.5 -74t152.5 -224.5t102.5 -380t37.5 -540.5v-10q139 2 299 13t358 32q23 17 44.5 28t40.5 11q21 0 50.5 -12.5t56.5 -29.5t45.5 -36t18.5 -31q0 -23 -33.5 -53 t-108.5 -62q-73 -71 -129 -151t-94 -164t-57.5 -169t-19.5 -164q0 -98 24 -170t64 -119.5t91.5 -71t105.5 -23.5q67 0 133.5 44t120.5 135q-17 52 -28 121t-11 141q0 57 8 113.5t27.5 101.5t50.5 73t78 28q35 0 59 -17.5t38.5 -46t20.5 -65t6 -75.5q0 -57 -10.5 -115.5 t-26 -112t-35 -100t-37.5 -79.5q30 -73 89 -111t125 -38q61 0 122.5 35.5t111 109.5t80.5 188t31 271q0 82 -15.5 163.5t-45.5 157.5t-75 143.5t-104 120.5l69 70q95 -71 163 -156t111.5 -179.5t64 -195t20.5 -201.5q0 -99 -17.5 -195t-50 -182t-78 -158.5t-102.5 -125.5 t-124 -82.5t-141 -29.5q-100 0 -176.5 70t-128.5 203h-6q-72 -135 -168 -204t-199 -69q-73 0 -139 45t-116 129t-79.5 205.5t-29.5 274.5q0 85 10 167t28.5 156.5t44.5 140t58 116.5l-4 5q-132 -21 -255.5 -31.5t-231.5 -13.5q-17 -262 -67.5 -481t-128.5 -377.5 t-180.5 -246.5t-223.5 -88q-79 0 -144 38.5t-112 113t-73 183.5t-26 249q0 20 1 43t1 56q0 22 -9.5 40.5t-26 31.5t-38 20t-45.5 7q-30 0 -61.5 -12.5t-59.5 -41.5zM1141 1429q0 122 -9.5 237.5t-28.5 218t-49 188t-70.5 147t-93 96t-116.5 34.5q-51 0 -99.5 -21 t-91.5 -58.5t-79 -88t-62 -109.5t-40.5 -124t-14.5 -130q0 -67 13 -125.5t45 -107.5t87 -88.5t138.5 -67t199.5 -43.5t270 -19q1 7 1 14.5v15.5v31zM2458 1568q-33 51 -70.5 111t-74.5 123t-71.5 124t-60.5 115t-41.5 96t-15.5 66q0 18 12 38.5t32 42.5t45 43.5t52 41.5 l44 -12q34 -175 84.5 -363.5t128.5 -393.5z" />
<glyph unicode="&#x3b8;&#x1ff6;" horiz-adv-x="3308" d="M59 680q-19 54 -19 99q0 58 19 100t49.5 69.5t69.5 41t79 13.5q38 0 73.5 -11.5t63.5 -35t44.5 -57.5t16.5 -79q0 -21 -3 -47t-7 -61t-7 -81t-3 -107q0 -76 15 -137t44 -104t71.5 -66t96.5 -23q82 0 159 61.5t139.5 181.5t107 296t62.5 406q-247 4 -411.5 47t-263.5 123 t-140.5 195.5t-41.5 265.5q0 101 17.5 201t50 192t78.5 171t104.5 137t127 91.5t145.5 33.5q100 0 187.5 -74t152.5 -224.5t102.5 -380t37.5 -540.5v-10q139 2 299 13t358 32q23 17 44.5 28t40.5 11q21 0 50.5 -12.5t56.5 -29.5t45.5 -36t18.5 -31q0 -23 -33.5 -53 t-108.5 -62q-73 -71 -129 -151t-94 -164t-57.5 -169t-19.5 -164q0 -98 24 -170t64 -119.5t91.5 -71t105.5 -23.5q67 0 133.5 44t120.5 135q-17 52 -28 121t-11 141q0 57 8 113.5t27.5 101.5t50.5 73t78 28q35 0 59 -17.5t38.5 -46t20.5 -65t6 -75.5q0 -57 -10.5 -115.5 t-26 -112t-35 -100t-37.5 -79.5q30 -73 89 -111t125 -38q61 0 122.5 35.5t111 109.5t80.5 188t31 271q0 82 -15.5 163.5t-45.5 157.5t-75 143.5t-104 120.5l69 70q95 -71 163 -156t111.5 -179.5t64 -195t20.5 -201.5q0 -99 -17.5 -195t-50 -182t-78 -158.5t-102.5 -125.5 t-124 -82.5t-141 -29.5q-100 0 -176.5 70t-128.5 203h-6q-72 -135 -168 -204t-199 -69q-73 0 -139 45t-116 129t-79.5 205.5t-29.5 274.5q0 85 10 167t28.5 156.5t44.5 140t58 116.5l-4 5q-132 -21 -255.5 -31.5t-231.5 -13.5q-17 -262 -67.5 -481t-128.5 -377.5 t-180.5 -246.5t-223.5 -88q-79 0 -144 38.5t-112 113t-73 183.5t-26 249q0 20 1 43t1 56q0 22 -9.5 40.5t-26 31.5t-38 20t-45.5 7q-30 0 -61.5 -12.5t-59.5 -41.5zM1141 1429q0 122 -9.5 237.5t-28.5 218t-49 188t-70.5 147t-93 96t-116.5 34.5q-51 0 -99.5 -21 t-91.5 -58.5t-79 -88t-62 -109.5t-40.5 -124t-14.5 -130q0 -67 13 -125.5t45 -107.5t87 -88.5t138.5 -67t199.5 -43.5t270 -19q1 7 1 14.5v15.5v31zM3000 2164q-33 -110 -73.5 -182.5t-85 -116t-90 -61t-87.5 -17.5q-58 0 -115 18.5t-111.5 40.5t-105.5 40.5t-98 18.5 q-30 0 -59 -9t-56.5 -30.5t-53 -57t-47.5 -88.5l-70 19q30 105 70.5 173.5t86 108.5t93.5 55.5t94 15.5q51 0 102.5 -14t102 -31t99.5 -31t96 -14q43 0 81 15t69 40.5t55 59t40 70.5z" />
<glyph unicode="&#x3b8;&#x1ff3;" horiz-adv-x="3308" d="M59 680q-19 54 -19 99q0 58 19 100t49.5 69.5t69.5 41t79 13.5q38 0 73.5 -11.5t63.5 -35t44.5 -57.5t16.5 -79q0 -21 -3 -47t-7 -61t-7 -81t-3 -107q0 -76 15 -137t44 -104t71.5 -66t96.5 -23q82 0 159 61.5t139.5 181.5t107 296t62.5 406q-247 4 -411.5 47t-263.5 123 t-140.5 195.5t-41.5 265.5q0 101 17.5 201t50 192t78.5 171t104.5 137t127 91.5t145.5 33.5q100 0 187.5 -74t152.5 -224.5t102.5 -380t37.5 -540.5v-10q139 2 299 13t358 32q23 17 44.5 28t40.5 11q21 0 50.5 -12.5t56.5 -29.5t45.5 -36t18.5 -31q0 -23 -33.5 -53 t-108.5 -62q-73 -71 -129 -151t-94 -164t-57.5 -169t-19.5 -164q0 -98 24 -170t64 -119.5t91.5 -71t105.5 -23.5q67 0 133.5 44t120.5 135q-17 52 -28 121t-11 141q0 57 8 113.5t27.5 101.5t50.5 73t78 28q35 0 59 -17.5t38.5 -46t20.5 -65t6 -75.5q0 -57 -10.5 -115.5 t-26 -112t-35 -100t-37.5 -79.5q30 -73 89 -111t125 -38q61 0 122.5 35.5t111 109.5t80.5 188t31 271q0 82 -15.5 163.5t-45.5 157.5t-75 143.5t-104 120.5l69 70q95 -71 163 -156t111.5 -179.5t64 -195t20.5 -201.5q0 -99 -17.5 -195t-50 -182t-78 -158.5t-102.5 -125.5 t-124 -82.5t-141 -29.5q-100 0 -176.5 70t-128.5 203h-6q-72 -135 -168 -204t-199 -69q-73 0 -139 45t-116 129t-79.5 205.5t-29.5 274.5q0 85 10 167t28.5 156.5t44.5 140t58 116.5l-4 5q-132 -21 -255.5 -31.5t-231.5 -13.5q-17 -262 -67.5 -481t-128.5 -377.5 t-180.5 -246.5t-223.5 -88q-79 0 -144 38.5t-112 113t-73 183.5t-26 249q0 20 1 43t1 56q0 22 -9.5 40.5t-26 31.5t-38 20t-45.5 7q-30 0 -61.5 -12.5t-59.5 -41.5zM1141 1429q0 122 -9.5 237.5t-28.5 218t-49 188t-70.5 147t-93 96t-116.5 34.5q-51 0 -99.5 -21 t-91.5 -58.5t-79 -88t-62 -109.5t-40.5 -124t-14.5 -130q0 -67 13 -125.5t45 -107.5t87 -88.5t138.5 -67t199.5 -43.5t270 -19q1 7 1 14.5v15.5v31zM2600 -831q-52 -26 -100.5 -38t-93.5 -12q-66 0 -112.5 22t-76 60.5t-43 89.5t-13.5 108q0 52 10 107t29 108t45.5 102.5 t58.5 90.5l132 14l19 -1q-21 -35 -38.5 -77t-30 -86.5t-19.5 -89t-7 -83.5q0 -48 12 -91t39.5 -77t71.5 -56.5t108 -29.5z" />
<glyph unicode="&#x3b8;&#x1ff4;" horiz-adv-x="3308" d="M59 680q-19 54 -19 99q0 58 19 100t49.5 69.5t69.5 41t79 13.5q38 0 73.5 -11.5t63.5 -35t44.5 -57.5t16.5 -79q0 -21 -3 -47t-7 -61t-7 -81t-3 -107q0 -76 15 -137t44 -104t71.5 -66t96.5 -23q82 0 159 61.5t139.5 181.5t107 296t62.5 406q-247 4 -411.5 47t-263.5 123 t-140.5 195.5t-41.5 265.5q0 101 17.5 201t50 192t78.5 171t104.5 137t127 91.5t145.5 33.5q100 0 187.5 -74t152.5 -224.5t102.5 -380t37.5 -540.5v-10q139 2 299 13t358 32q23 17 44.5 28t40.5 11q21 0 50.5 -12.5t56.5 -29.5t45.5 -36t18.5 -31q0 -23 -33.5 -53 t-108.5 -62q-73 -71 -129 -151t-94 -164t-57.5 -169t-19.5 -164q0 -98 24 -170t64 -119.5t91.5 -71t105.5 -23.5q67 0 133.5 44t120.5 135q-17 52 -28 121t-11 141q0 57 8 113.5t27.5 101.5t50.5 73t78 28q35 0 59 -17.5t38.5 -46t20.5 -65t6 -75.5q0 -57 -10.5 -115.5 t-26 -112t-35 -100t-37.5 -79.5q30 -73 89 -111t125 -38q61 0 122.5 35.5t111 109.5t80.5 188t31 271q0 82 -15.5 163.5t-45.5 157.5t-75 143.5t-104 120.5l69 70q95 -71 163 -156t111.5 -179.5t64 -195t20.5 -201.5q0 -99 -17.5 -195t-50 -182t-78 -158.5t-102.5 -125.5 t-124 -82.5t-141 -29.5q-100 0 -176.5 70t-128.5 203h-6q-72 -135 -168 -204t-199 -69q-73 0 -139 45t-116 129t-79.5 205.5t-29.5 274.5q0 85 10 167t28.5 156.5t44.5 140t58 116.5l-4 5q-132 -21 -255.5 -31.5t-231.5 -13.5q-17 -262 -67.5 -481t-128.5 -377.5 t-180.5 -246.5t-223.5 -88q-79 0 -144 38.5t-112 113t-73 183.5t-26 249q0 20 1 43t1 56q0 22 -9.5 40.5t-26 31.5t-38 20t-45.5 7q-30 0 -61.5 -12.5t-59.5 -41.5zM1141 1429q0 122 -9.5 237.5t-28.5 218t-49 188t-70.5 147t-93 96t-116.5 34.5q-51 0 -99.5 -21 t-91.5 -58.5t-79 -88t-62 -109.5t-40.5 -124t-14.5 -130q0 -67 13 -125.5t45 -107.5t87 -88.5t138.5 -67t199.5 -43.5t270 -19q1 7 1 14.5v15.5v31zM2328 1599q109 203 186 393t134 365l47 12q28 -19 51 -42.5t39.5 -47t26 -44.5t9.5 -34q0 -21 -19 -61.5t-52 -92.5 t-76 -113.5t-91 -124.5t-98 -125t-96 -116zM2600 -831q-52 -26 -100.5 -38t-93.5 -12q-66 0 -112.5 22t-76 60.5t-43 89.5t-13.5 108q0 52 10 107t29 108t45.5 102.5t58.5 90.5l132 14l19 -1q-21 -35 -38.5 -77t-30 -86.5t-19.5 -89t-7 -83.5q0 -48 12 -91t39.5 -77 t71.5 -56.5t108 -29.5z" />
<glyph unicode="&#x3b8;&#x1ff2;" horiz-adv-x="3308" d="M59 680q-19 54 -19 99q0 58 19 100t49.5 69.5t69.5 41t79 13.5q38 0 73.5 -11.5t63.5 -35t44.5 -57.5t16.5 -79q0 -21 -3 -47t-7 -61t-7 -81t-3 -107q0 -76 15 -137t44 -104t71.5 -66t96.5 -23q82 0 159 61.5t139.5 181.5t107 296t62.5 406q-247 4 -411.5 47t-263.5 123 t-140.5 195.5t-41.5 265.5q0 101 17.5 201t50 192t78.5 171t104.5 137t127 91.5t145.5 33.5q100 0 187.5 -74t152.5 -224.5t102.5 -380t37.5 -540.5v-10q139 2 299 13t358 32q23 17 44.5 28t40.5 11q21 0 50.5 -12.5t56.5 -29.5t45.5 -36t18.5 -31q0 -23 -33.5 -53 t-108.5 -62q-73 -71 -129 -151t-94 -164t-57.5 -169t-19.5 -164q0 -98 24 -170t64 -119.5t91.5 -71t105.5 -23.5q67 0 133.5 44t120.5 135q-17 52 -28 121t-11 141q0 57 8 113.5t27.5 101.5t50.5 73t78 28q35 0 59 -17.5t38.5 -46t20.5 -65t6 -75.5q0 -57 -10.5 -115.5 t-26 -112t-35 -100t-37.5 -79.5q30 -73 89 -111t125 -38q61 0 122.5 35.5t111 109.5t80.5 188t31 271q0 82 -15.5 163.5t-45.5 157.5t-75 143.5t-104 120.5l69 70q95 -71 163 -156t111.5 -179.5t64 -195t20.5 -201.5q0 -99 -17.5 -195t-50 -182t-78 -158.5t-102.5 -125.5 t-124 -82.5t-141 -29.5q-100 0 -176.5 70t-128.5 203h-6q-72 -135 -168 -204t-199 -69q-73 0 -139 45t-116 129t-79.5 205.5t-29.5 274.5q0 85 10 167t28.5 156.5t44.5 140t58 116.5l-4 5q-132 -21 -255.5 -31.5t-231.5 -13.5q-17 -262 -67.5 -481t-128.5 -377.5 t-180.5 -246.5t-223.5 -88q-79 0 -144 38.5t-112 113t-73 183.5t-26 249q0 20 1 43t1 56q0 22 -9.5 40.5t-26 31.5t-38 20t-45.5 7q-30 0 -61.5 -12.5t-59.5 -41.5zM1141 1429q0 122 -9.5 237.5t-28.5 218t-49 188t-70.5 147t-93 96t-116.5 34.5q-51 0 -99.5 -21 t-91.5 -58.5t-79 -88t-62 -109.5t-40.5 -124t-14.5 -130q0 -67 13 -125.5t45 -107.5t87 -88.5t138.5 -67t199.5 -43.5t270 -19q1 7 1 14.5v15.5v31zM2458 1568q-33 51 -70.5 111t-74.5 123t-71.5 124t-60.5 115t-41.5 96t-15.5 66q0 18 12 38.5t32 42.5t45 43.5t52 41.5 l44 -12q34 -175 84.5 -363.5t128.5 -393.5zM2600 -831q-52 -26 -100.5 -38t-93.5 -12q-66 0 -112.5 22t-76 60.5t-43 89.5t-13.5 108q0 52 10 107t29 108t45.5 102.5t58.5 90.5l132 14l19 -1q-21 -35 -38.5 -77t-30 -86.5t-19.5 -89t-7 -83.5q0 -48 12 -91t39.5 -77 t71.5 -56.5t108 -29.5z" />
<glyph unicode="&#x3b8;&#x1ff7;" horiz-adv-x="3308" d="M59 680q-19 54 -19 99q0 58 19 100t49.5 69.5t69.5 41t79 13.5q38 0 73.5 -11.5t63.5 -35t44.5 -57.5t16.5 -79q0 -21 -3 -47t-7 -61t-7 -81t-3 -107q0 -76 15 -137t44 -104t71.5 -66t96.5 -23q82 0 159 61.5t139.5 181.5t107 296t62.5 406q-247 4 -411.5 47t-263.5 123 t-140.5 195.5t-41.5 265.5q0 101 17.5 201t50 192t78.5 171t104.5 137t127 91.5t145.5 33.5q100 0 187.5 -74t152.5 -224.5t102.5 -380t37.5 -540.5v-10q139 2 299 13t358 32q23 17 44.5 28t40.5 11q21 0 50.5 -12.5t56.5 -29.5t45.5 -36t18.5 -31q0 -23 -33.5 -53 t-108.5 -62q-73 -71 -129 -151t-94 -164t-57.5 -169t-19.5 -164q0 -98 24 -170t64 -119.5t91.5 -71t105.5 -23.5q67 0 133.5 44t120.5 135q-17 52 -28 121t-11 141q0 57 8 113.5t27.5 101.5t50.5 73t78 28q35 0 59 -17.5t38.5 -46t20.5 -65t6 -75.5q0 -57 -10.5 -115.5 t-26 -112t-35 -100t-37.5 -79.5q30 -73 89 -111t125 -38q61 0 122.5 35.5t111 109.5t80.5 188t31 271q0 82 -15.5 163.5t-45.5 157.5t-75 143.5t-104 120.5l69 70q95 -71 163 -156t111.5 -179.5t64 -195t20.5 -201.5q0 -99 -17.5 -195t-50 -182t-78 -158.5t-102.5 -125.5 t-124 -82.5t-141 -29.5q-100 0 -176.5 70t-128.5 203h-6q-72 -135 -168 -204t-199 -69q-73 0 -139 45t-116 129t-79.5 205.5t-29.5 274.5q0 85 10 167t28.5 156.5t44.5 140t58 116.5l-4 5q-132 -21 -255.5 -31.5t-231.5 -13.5q-17 -262 -67.5 -481t-128.5 -377.5 t-180.5 -246.5t-223.5 -88q-79 0 -144 38.5t-112 113t-73 183.5t-26 249q0 20 1 43t1 56q0 22 -9.5 40.5t-26 31.5t-38 20t-45.5 7q-30 0 -61.5 -12.5t-59.5 -41.5zM1141 1429q0 122 -9.5 237.5t-28.5 218t-49 188t-70.5 147t-93 96t-116.5 34.5q-51 0 -99.5 -21 t-91.5 -58.5t-79 -88t-62 -109.5t-40.5 -124t-14.5 -130q0 -67 13 -125.5t45 -107.5t87 -88.5t138.5 -67t199.5 -43.5t270 -19q1 7 1 14.5v15.5v31zM3000 2164q-33 -110 -73.5 -182.5t-85 -116t-90 -61t-87.5 -17.5q-58 0 -115 18.5t-111.5 40.5t-105.5 40.5t-98 18.5 q-30 0 -59 -9t-56.5 -30.5t-53 -57t-47.5 -88.5l-70 19q30 105 70.5 173.5t86 108.5t93.5 55.5t94 15.5q51 0 102.5 -14t102 -31t99.5 -31t96 -14q43 0 81 15t69 40.5t55 59t40 70.5zM2600 -831q-52 -26 -100.5 -38t-93.5 -12q-66 0 -112.5 22t-76 60.5t-43 89.5t-13.5 108 q0 52 10 107t29 108t45.5 102.5t58.5 90.5l132 14l19 -1q-21 -35 -38.5 -77t-30 -86.5t-19.5 -89t-7 -83.5q0 -48 12 -91t39.5 -77t71.5 -56.5t108 -29.5z" />
<glyph unicode="&#x3bb;&#x3bb;" horiz-adv-x="2537" d="M2568 268q10 -39 10 -78q0 -47 -16.5 -89t-46 -74t-71 -50.5t-90.5 -18.5q-58 0 -102.5 27.5t-80.5 87.5t-66 154.5t-58.5 228t-59 308.5t-67.5 396h-9q-131 -274 -261 -561.5t-267 -598.5l-295 -28l-24 3q-32 89 -66 215.5t-68.5 281t-67.5 330.5t-63 364h-9 q-136 -289 -266 -578t-255 -588l-241 -26l-24 3q88 193 178 380.5t182 372.5t185.5 368.5t188.5 369.5q-30 152 -60.5 279t-65.5 228t-77.5 176.5t-96.5 125.5t-123 75t-157 25q-78 0 -150 -25.5t-124 -73.5l-14 5q-1 5 -1 14v14q0 57 23.5 116t67.5 106.5t107 78t142 30.5 q100 0 177.5 -39t139 -116t110 -191t90.5 -264t80.5 -335.5t80.5 -404.5q27 -140 50.5 -260.5t46 -225.5t45.5 -196.5t48.5 -174t54.5 -158t65 -148.5q43 97 84.5 184.5t85.5 177.5t93.5 188t108.5 214.5t130 257t159 317.5q-46 239 -93 417t-111 296.5t-154 177t-222 58.5 q-78 0 -148 -24.5t-116 -66.5l-14 5q-1 5 -1 14v14q0 57 22 114.5t64 104t103.5 75.5t140.5 29q100 0 177 -40t138.5 -119.5t110 -196.5t90.5 -271.5t81 -345.5t81 -417q54 -289 94 -494.5t81 -336t90.5 -191.5t122.5 -61q33 0 74 13.5t86 50.5z" />
<glyph unicode="&#x3c0;&#x3b1;" horiz-adv-x="3080" d="M3023 283q2 -16 3 -31t1 -29q0 -67 -19.5 -117t-51.5 -83t-72 -49.5t-80 -16.5q-62 0 -104.5 29t-71 83t-46 132.5t-29.5 177.5h-6q-75 -138 -146.5 -223t-135.5 -131.5t-119 -62.5t-98 -16q-86 0 -152.5 45.5t-112.5 123.5t-70 183.5t-24 225.5q0 94 13.5 188t39 182 t61 166t79.5 141l-5 5q-121 -21 -245 -28.5t-265 -7.5q-51 0 -101 0.5t-101 1.5q-21 -239 -31.5 -406.5t-10.5 -276.5q0 -63 3 -116t16.5 -92t40.5 -60.5t74 -21.5q26 0 51 7t47.5 18.5t41.5 26t33 28.5l18 -4q9 -33 9 -65q0 -54 -21.5 -100.5t-58 -81t-83.5 -54t-98 -19.5 q-74 0 -122.5 25.5t-77.5 68.5t-41 99t-12 118q0 41 3.5 100.5t10 132t15.5 155t19 170t21 176.5t22 175q-93 2 -179 4.5t-174 6.5q-46 -283 -95.5 -580.5t-106.5 -605.5l-220 -26l-21 1q99 312 176.5 614t136.5 601q-22 1 -38 1.5t-30 0.5h-52q-143 0 -208 -50.5 t-65 -141.5q0 -47 16 -99l-65 -22q-25 49 -37 98.5t-12 97.5q0 67 22.5 129.5t67.5 111t113 77.5t159 29q133 0 343 -8t506 -8q71 0 154 0.5t169.5 2t171.5 4.5t160.5 7.5t136.5 11t100 15.5q26 6 46.5 9t41.5 3q55 0 97.5 -23.5t75 -64.5t57 -98t42.5 -124t31 -141.5 t24 -150.5l6 -1q33 109 65 242t66 292q6 30 39.5 46t81.5 16q34 0 70.5 -8.5t69.5 -27.5q-46 -139 -90.5 -261.5t-87.5 -231t-85 -205t-84 -183.5q13 -71 30 -132t40.5 -105.5t55.5 -69.5t74 -25q15 0 35.5 2.5t44 11t49 25.5t52.5 46zM2263 1213q-45 0 -96.5 -22 t-101.5 -64t-96 -101t-80.5 -134t-55.5 -163t-21 -187q0 -164 61 -255.5t186 -91.5q47 0 102 16.5t114 67.5t120 146t121 251q-12 105 -31 202.5t-48.5 171.5t-72 118.5t-101.5 44.5z" />
<glyph unicode="&#x3c0;&#x3ac;" horiz-adv-x="3080" d="M3023 283q2 -16 3 -31t1 -29q0 -67 -19.5 -117t-51.5 -83t-72 -49.5t-80 -16.5q-62 0 -104.5 29t-71 83t-46 132.5t-29.5 177.5h-6q-75 -138 -146.5 -223t-135.5 -131.5t-119 -62.5t-98 -16q-86 0 -152.5 45.5t-112.5 123.5t-70 183.5t-24 225.5q0 94 13.5 188t39 182 t61 166t79.5 141l-5 5q-121 -21 -245 -28.5t-265 -7.5q-51 0 -101 0.5t-101 1.5q-21 -239 -31.5 -406.5t-10.5 -276.5q0 -63 3 -116t16.5 -92t40.5 -60.5t74 -21.5q26 0 51 7t47.5 18.5t41.5 26t33 28.5l18 -4q9 -33 9 -65q0 -54 -21.5 -100.5t-58 -81t-83.5 -54t-98 -19.5 q-74 0 -122.5 25.5t-77.5 68.5t-41 99t-12 118q0 41 3.5 100.5t10 132t15.5 155t19 170t21 176.5t22 175q-93 2 -179 4.5t-174 6.5q-46 -283 -95.5 -580.5t-106.5 -605.5l-220 -26l-21 1q99 312 176.5 614t136.5 601q-22 1 -38 1.5t-30 0.5h-52q-143 0 -208 -50.5 t-65 -141.5q0 -47 16 -99l-65 -22q-25 49 -37 98.5t-12 97.5q0 67 22.5 129.5t67.5 111t113 77.5t159 29q133 0 343 -8t506 -8q71 0 154 0.5t169.5 2t171.5 4.5t160.5 7.5t136.5 11t100 15.5q26 6 46.5 9t41.5 3q55 0 97.5 -23.5t75 -64.5t57 -98t42.5 -124t31 -141.5 t24 -150.5l6 -1q33 109 65 242t66 292q6 30 39.5 46t81.5 16q34 0 70.5 -8.5t69.5 -27.5q-46 -139 -90.5 -261.5t-87.5 -231t-85 -205t-84 -183.5q13 -71 30 -132t40.5 -105.5t55.5 -69.5t74 -25q15 0 35.5 2.5t44 11t49 25.5t52.5 46zM2263 1213q-45 0 -96.5 -22 t-101.5 -64t-96 -101t-80.5 -134t-55.5 -163t-21 -187q0 -164 61 -255.5t186 -91.5q47 0 102 16.5t114 67.5t120 146t121 251q-12 105 -31 202.5t-48.5 171.5t-72 118.5t-101.5 44.5zM2310 1599q109 203 186 393t134 365l47 12q28 -19 51 -42.5t39.5 -47t26 -44.5t9.5 -34 q0 -21 -19 -61.5t-52 -92.5t-76 -113.5t-91 -124.5t-98 -125t-96 -116z" />
<glyph unicode="&#x3c0;&#x1f70;" horiz-adv-x="3080" d="M3023 283q2 -16 3 -31t1 -29q0 -67 -19.5 -117t-51.5 -83t-72 -49.5t-80 -16.5q-62 0 -104.5 29t-71 83t-46 132.5t-29.5 177.5h-6q-75 -138 -146.5 -223t-135.5 -131.5t-119 -62.5t-98 -16q-86 0 -152.5 45.5t-112.5 123.5t-70 183.5t-24 225.5q0 94 13.5 188t39 182 t61 166t79.5 141l-5 5q-121 -21 -245 -28.5t-265 -7.5q-51 0 -101 0.5t-101 1.5q-21 -239 -31.5 -406.5t-10.5 -276.5q0 -63 3 -116t16.5 -92t40.5 -60.5t74 -21.5q26 0 51 7t47.5 18.5t41.5 26t33 28.5l18 -4q9 -33 9 -65q0 -54 -21.5 -100.5t-58 -81t-83.5 -54t-98 -19.5 q-74 0 -122.5 25.5t-77.5 68.5t-41 99t-12 118q0 41 3.5 100.5t10 132t15.5 155t19 170t21 176.5t22 175q-93 2 -179 4.5t-174 6.5q-46 -283 -95.5 -580.5t-106.5 -605.5l-220 -26l-21 1q99 312 176.5 614t136.5 601q-22 1 -38 1.5t-30 0.5h-52q-143 0 -208 -50.5 t-65 -141.5q0 -47 16 -99l-65 -22q-25 49 -37 98.5t-12 97.5q0 67 22.5 129.5t67.5 111t113 77.5t159 29q133 0 343 -8t506 -8q71 0 154 0.5t169.5 2t171.5 4.5t160.5 7.5t136.5 11t100 15.5q26 6 46.5 9t41.5 3q55 0 97.5 -23.5t75 -64.5t57 -98t42.5 -124t31 -141.5 t24 -150.5l6 -1q33 109 65 242t66 292q6 30 39.5 46t81.5 16q34 0 70.5 -8.5t69.5 -27.5q-46 -139 -90.5 -261.5t-87.5 -231t-85 -205t-84 -183.5q13 -71 30 -132t40.5 -105.5t55.5 -69.5t74 -25q15 0 35.5 2.5t44 11t49 25.5t52.5 46zM2263 1213q-45 0 -96.5 -22 t-101.5 -64t-96 -101t-80.5 -134t-55.5 -163t-21 -187q0 -164 61 -255.5t186 -91.5q47 0 102 16.5t114 67.5t120 146t121 251q-12 105 -31 202.5t-48.5 171.5t-72 118.5t-101.5 44.5zM2440 1568q-33 51 -70.5 111t-74.5 123t-71.5 124t-60.5 115t-41.5 96t-15.5 66 q0 18 12 38.5t32 42.5t45 43.5t52 41.5l44 -12q34 -175 84.5 -363.5t128.5 -393.5z" />
<glyph unicode="&#x3c0;&#x1fb6;" horiz-adv-x="3080" d="M3023 283q2 -16 3 -31t1 -29q0 -67 -19.5 -117t-51.5 -83t-72 -49.5t-80 -16.5q-62 0 -104.5 29t-71 83t-46 132.5t-29.5 177.5h-6q-75 -138 -146.5 -223t-135.5 -131.5t-119 -62.5t-98 -16q-86 0 -152.5 45.5t-112.5 123.5t-70 183.5t-24 225.5q0 94 13.5 188t39 182 t61 166t79.5 141l-5 5q-121 -21 -245 -28.5t-265 -7.5q-51 0 -101 0.5t-101 1.5q-21 -239 -31.5 -406.5t-10.5 -276.5q0 -63 3 -116t16.5 -92t40.5 -60.5t74 -21.5q26 0 51 7t47.5 18.5t41.5 26t33 28.5l18 -4q9 -33 9 -65q0 -54 -21.5 -100.5t-58 -81t-83.5 -54t-98 -19.5 q-74 0 -122.5 25.5t-77.5 68.5t-41 99t-12 118q0 41 3.5 100.5t10 132t15.5 155t19 170t21 176.5t22 175q-93 2 -179 4.5t-174 6.5q-46 -283 -95.5 -580.5t-106.5 -605.5l-220 -26l-21 1q99 312 176.5 614t136.5 601q-22 1 -38 1.5t-30 0.5h-52q-143 0 -208 -50.5 t-65 -141.5q0 -47 16 -99l-65 -22q-25 49 -37 98.5t-12 97.5q0 67 22.5 129.5t67.5 111t113 77.5t159 29q133 0 343 -8t506 -8q71 0 154 0.5t169.5 2t171.5 4.5t160.5 7.5t136.5 11t100 15.5q26 6 46.5 9t41.5 3q55 0 97.5 -23.5t75 -64.5t57 -98t42.5 -124t31 -141.5 t24 -150.5l6 -1q33 109 65 242t66 292q6 30 39.5 46t81.5 16q34 0 70.5 -8.5t69.5 -27.5q-46 -139 -90.5 -261.5t-87.5 -231t-85 -205t-84 -183.5q13 -71 30 -132t40.5 -105.5t55.5 -69.5t74 -25q15 0 35.5 2.5t44 11t49 25.5t52.5 46zM2263 1213q-45 0 -96.5 -22 t-101.5 -64t-96 -101t-80.5 -134t-55.5 -163t-21 -187q0 -164 61 -255.5t186 -91.5q47 0 102 16.5t114 67.5t120 146t121 251q-12 105 -31 202.5t-48.5 171.5t-72 118.5t-101.5 44.5zM2982 2164q-33 -110 -73.5 -182.5t-85 -116t-90 -61t-87.5 -17.5q-58 0 -115 18.5 t-111.5 40.5t-105.5 40.5t-98 18.5q-30 0 -59 -9t-56.5 -30.5t-53 -57t-47.5 -88.5l-70 19q30 105 70.5 173.5t86 108.5t93.5 55.5t94 15.5q51 0 102.5 -14t102 -31t99.5 -31t96 -14q43 0 81 15t69 40.5t55 59t40 70.5z" />
<glyph unicode="&#x3c0;&#x1fb1;" horiz-adv-x="3080" d="M3023 283q2 -16 3 -31t1 -29q0 -67 -19.5 -117t-51.5 -83t-72 -49.5t-80 -16.5q-62 0 -104.5 29t-71 83t-46 132.5t-29.5 177.5h-6q-75 -138 -146.5 -223t-135.5 -131.5t-119 -62.5t-98 -16q-86 0 -152.5 45.5t-112.5 123.5t-70 183.5t-24 225.5q0 94 13.5 188t39 182 t61 166t79.5 141l-5 5q-121 -21 -245 -28.5t-265 -7.5q-51 0 -101 0.5t-101 1.5q-21 -239 -31.5 -406.5t-10.5 -276.5q0 -63 3 -116t16.5 -92t40.5 -60.5t74 -21.5q26 0 51 7t47.5 18.5t41.5 26t33 28.5l18 -4q9 -33 9 -65q0 -54 -21.5 -100.5t-58 -81t-83.5 -54t-98 -19.5 q-74 0 -122.5 25.5t-77.5 68.5t-41 99t-12 118q0 41 3.5 100.5t10 132t15.5 155t19 170t21 176.5t22 175q-93 2 -179 4.5t-174 6.5q-46 -283 -95.5 -580.5t-106.5 -605.5l-220 -26l-21 1q99 312 176.5 614t136.5 601q-22 1 -38 1.5t-30 0.5h-52q-143 0 -208 -50.5 t-65 -141.5q0 -47 16 -99l-65 -22q-25 49 -37 98.5t-12 97.5q0 67 22.5 129.5t67.5 111t113 77.5t159 29q133 0 343 -8t506 -8q71 0 154 0.5t169.5 2t171.5 4.5t160.5 7.5t136.5 11t100 15.5q26 6 46.5 9t41.5 3q55 0 97.5 -23.5t75 -64.5t57 -98t42.5 -124t31 -141.5 t24 -150.5l6 -1q33 109 65 242t66 292q6 30 39.5 46t81.5 16q34 0 70.5 -8.5t69.5 -27.5q-46 -139 -90.5 -261.5t-87.5 -231t-85 -205t-84 -183.5q13 -71 30 -132t40.5 -105.5t55.5 -69.5t74 -25q15 0 35.5 2.5t44 11t49 25.5t52.5 46zM2263 1213q-45 0 -96.5 -22 t-101.5 -64t-96 -101t-80.5 -134t-55.5 -163t-21 -187q0 -164 61 -255.5t186 -91.5q47 0 102 16.5t114 67.5t120 146t121 251q-12 105 -31 202.5t-48.5 171.5t-72 118.5t-101.5 44.5zM2848 2025q10 -24 13.5 -42t3.5 -36q0 -26 -9.5 -42t-30 -25t-53 -12t-77.5 -3 q-69 0 -178.5 3.5t-249.5 3.5q-67 0 -132.5 -4.5t-131.5 -24.5q0 56 23 90t64.5 52.5t99.5 24.5t128 6q33 0 71.5 -1t79.5 -1.5t83 -1.5t81 -1q60 0 114.5 3t100.5 11z" />
</font>
</defs>
</svg>
